Микита Кожум'яка / The Dragon Spell (2016) AVC

Нові коментарі

Нова тема   Відповісти
Автор Повідомлення
Anonymous 







2017-07-04 17:40  
Микита Кожум'яка / The Dragon Spell (2016) AVC



Альтернативні постери








повнорозмірні зображення відкриються по кліку (з натиснутим CTRL чи кліком середньою кнопкою мишки - у новій вкладці)


Жанр: анімація, фентезі, пригодницький, комедія, сімейний
Країна: Україна



Кінокомпанія: Panama GrandPrix, Державне агентство України з питань кіно, Karandash Animation Studio, Sola Media GmbH
Режисер: Манук Депоян
Актори: Арсен Шавлюк, Віктор Андрієнко, Руслана Писанка, Сергій Сивохо, Василь Вірастюк

Сюжет:
Анімаційний фільм «Микита Кожум'яка» продовжує історію відомого героя Кирила Кожум'яки, який переміг останнього Змія, тільки головним героєм цієї історії став його 12-річний син Микита, який не володіє надзвичайною фізичною силою батька і тільки завдяки силі характеру повинен перемогти Змія і врятувати світ. У чарівному світі на Микиту і його нових друзів буде чекати багато смішних і динамічних пригод. Це дивовижна казка з захоплюючим сюжетом і щасливим кінцем, в якій розповідається про щирі почуття, справжню дружбу, і про те, що справжнє геройство не у фізичній силі, а в силі духу. Фільм знято за мотивами книги Антона Сіяніки «Микита Кожум'яка».
Офіційні українські трейлери:





Тривалість: 01:26:25
Якість: AVC [Англомовний відеоряд]
Відео:
кодек:
розмір кадру: 1024 x 574
бітрейт: 3058 кб/с

Аудіо:
мова: українська
переклад: професійний дубльований
кодек: 2.0
бітрейт: 192 кб/с

Збережено оригінальні розділи
Info
Код:

Complete name               : The Dragon Spell (2016) [Ukr] AVC [Hurtom].
Format                      :
Format version              : Version 4 / Version 2
File size                   : 1.96 GiB
Duration                    : 1 h 26 min
Overall bit rate            : 3 252 kb/s
Movie name                  : Микита Кожум'яка / The Dragon Spell (2016) [Ukr] AVC [Hurtom]
Released date               : 2016
Cover                       : Yes
Comment                     : http://www.imdb.com/title/tt5954304/
Attachments                 : cover.jpg
ARTIST                      : Арсен Шавлюк, Віктор Андрієнко, Руслана Писанка, Сергій Сивохо, Василь Вірастюк
DIRECTOR                    : Манук Депоян
GENRE                       : анімація, пригодницький, сімейний, комедія, фентезі
SYNOPSIS                    : Анімаційний фільм «Микита Кожум'яка» продовжує історію відомого героя Кирила Кожум'яки, який переміг останнього Змія, тільки головним героєм цієї історії став його 12-річний син Микита, який не володіє надзвичайною фізичною силою батька і тільки завдяки силі характеру повинен перемогти Змія і врятувати світ. У чарівному світі на Микиту і його нових друзів буде чекати багато смішних і динамічних пригод. Це дивовижна казка з захоплюючим сюжетом і щасливим кінцем, в якій розповідається про щирі почуття, справжню дружбу, і про те, що справжнє геройство не у фізичній силі, а в силі духу. Фільм знято за мотивами книги Антона Сіяніки «Микита Кожум'яка».
Url                         : https://toloka.to/t82715

Video
ID                          : 1
Format                      : AVC
Format/Info                 : Advanced Video Codec
Format profile              : [email protected]
Format settings, CABAC      : Yes
Format settings, ReFrames   : 12 frames
Codec ID                    : V_MPEG4/ISO/AVC
Duration                    : 1 h 26 min
Bit rate                    : 3 058 kb/s
Width                       : 1 024 pixels
Height                      : 574 pixels
Display aspect ratio        : 16:9
Frame rate mode             : Constant
Frame rate                  : 24.000 FPS
Color space                 : YUV
Chroma subsampling          : 4:2:0
Bit depth                   : 8 bits
Scan type                   : Progressive
Bits/(Pixel*Frame)          : 0.217
Stream size                 : 1.85 GiB (94%)
Title                       : Микита Кожум'яка / The Dragon Spell (2016) AVC [ExKinoRay-Enigma]
Writing library             : core 144 r2525 40bb568
Encoding settings           : cabac=1 / ref=12 / deblock=1:-2:-2 / analyse=0x3:0x113 / me=umh / subme=10 / psy=1 / psy_rd=1.00:0.02 / mixed_ref=1 / me_range=32 / chroma_me=1 / trellis=2 / 8x8dct=1 / cqm=0 / deadzone=21,11 / fast_pskip=1 / chroma_qp_offset=-3 / threads=12 / lookahead_threads=3 / sliced_threads=0 / nr=0 / decimate=0 / interlaced=0 / bluray_compat=0 / constrained_intra=0 / bframes=10 / b_pyramid=2 / b_adapt=2 / b_bias=0 / direct=3 / weightb=1 / open_gop=0 / weightp=2 / keyint=240 / keyint_min=24 / scenecut=40 / intra_refresh=0 / rc_lookahead=40 / rc=2pass / mbtree=0 / bitrate=3058 / ratetol=1.0 / qcomp=0.65 / qpmin=0 / qpmax=51 / qpstep=4 / cplxblur=20.0 / qblur=0.5 / vbv_maxrate=50000 / vbv_bufsize=62500 / nal_hrd=none / filler=0 / ip_ratio=1.40 / pb_ratio=1.30 / aq=1:1.00
Language                    : English
Default                     : Yes
Forced                      : No
Color range                 : Limited
Color primaries             : BT.709
Transfer characteristics    : BT.709
Matrix coefficients         : BT.709

Audio
ID                          : 2
Format                      : AC-3
Format/Info                 : Audio Coding 3
Format settings, Endianness : Big
Codec ID                    : A_AC3
Duration                    : 1 h 26 min
Bit rate mode               : Constant
Bit rate                    : 192 kb/s
Channel(s)                  : 2 channels
Channel positions           : Front: L R
Sampling rate               : 48.0 kHz
Frame rate                  : 31.250 FPS (1536 spf)
Bit depth                   : 16 bits
Compression mode            : Lossy
Stream size                 : 119 MiB (6%)
Title                       : DUB [Pie Post Production, Novyj] 2.0 192 Kbps [Hurtom-Gelios, Sando7]
Language                    : Ukrainian
Service kind                : Complete Main
Default                     : Yes
Forced                      : No

Menu
00:00:00.000                : en:00:00:00
00:05:20.208                : en:00:05:20
00:12:57.958                : en:00:12:57
00:18:46.124                : en:00:18:46
00:24:28.499                : en:00:24:28
00:30:18.249                : en:00:30:18
00:35:41.124                : en:00:35:41
00:41:02.957                : en:00:41:02
00:47:22.665                : en:00:47:22
00:54:12.956                : en:00:54:12
00:58:05.164                : en:00:58:05
01:03:31.664                : en:01:03:31
01:07:02.664                : en:01:07:02
01:11:15.580                : en:01:11:15
01:16:00.871                : en:01:16:00



Джерело: &

Подяка пану Sando7 за запис звуку з ТБ


Золотий реліз (завантажене не впливає на рейтинг)
 Трекер:    Зареєстрований   

Завантажити / скачати український мультфільм



відео для новачків



 Зареєстрований:   2017-07-04 18:01
 Розмір:   1.96 GB 
 Оцінка мультфільму:   4.9/10 (Голосів: 23)
   
Інші релізи
   Микита Кожум'яка / The Dragon Spell (2016) Gelios  68 / 0   1.37 GB   2017-07-07 22:53 
   Микита Кожум'яка / The Dragon Spell (2016) 720p igor911  18 / 0   2.54 GB   2017-07-04 16:10 
   Микита Кожум'яка / The Dragon Spell (2016) 1080p igor911  75 / 0   3.21 GB   2017-07-04 15:18 
   Микита Кожум'яка / The Dragon Spell (2016) AVC sergiyko.5  94 / 0   1.83 GB   2017-05-16 18:58 
   Микита Кожум'яка / The Dragon Spell (2016) DVDRemux krigg070  26 / 0   3.35 GB   2017-05-16 17:45 
Ваш часовий пояс: GMT + 2 Години

Нова тема   Відповісти