Микита Кожум'яка / The Dragon Spell (2016) 720p

Нові коментарі

Нова тема   Відповісти
Автор Повідомлення
Anonymous 







2017-07-04 15:41  
Микита Кожум'яка / The Dragon Spell (2016) 720p



Альтернативні постери








повнорозмірні зображення відкриються по кліку (з натиснутим CTRL чи кліком середньою кнопкою мишки - у новій вкладці)


Жанр: анімація, фентезі, пригодницький, комедія, сімейний
Країна: Україна



Кінокомпанія: Panama GrandPrix, Державне агентство України з питань кіно, Karandash Animation Studio, Sola Media GmbH
Режисер: Манук Депоян
Актори: Арсен Шавлюк, Віктор Андрієнко, Руслана Писанка, Сергій Сивохо, Василь Вірастюк

Сюжет:
Анімаційний фільм «Микита Кожум'яка» продовжує історію відомого героя Кирила Кожум'яки, який переміг останнього Змія, тільки головним героєм цієї історії став його 12-річний син Микита, який не володіє надзвичайною фізичною силою батька і тільки завдяки силі характеру повинен перемогти Змія і врятувати світ. У чарівному світі на Микиту і його нових друзів буде чекати багато смішних і динамічних пригод. Це дивовижна казка з захоплюючим сюжетом і щасливим кінцем, в якій розповідається про щирі почуття, справжню дружбу, і про те, що справжнє геройство не у фізичній силі, а в силі духу. Фільм знято за мотивами книги Антона Сіяніки «Микита Кожум'яка».
Офіційні українські трейлери:





Тривалість: 01:26:25
Якість: 720p [Англомовний відеоряд]
Відео:
кодек:
розмір кадру: 1280 x 718
бітрейт: 4007 кб/с

Аудіо:
мова: українська
переклад: професійний дубльований
кодек: 2.0
бітрейт: 192 кб/с

Збережено оригінальні розділи
Info
Код:
Complete name               : The Dragon Spell (2016) [Ukr] 720p [Hurtom].
Format                      :
Format version              : Version 4 / Version 2
File size                   : 2.54 GiB
Duration                    : 1 h 26 min
Overall bit rate            : 4 202 kb/s
Movie name                  : Микита Кожум'яка / The Dragon Spell (2016) [Ukr] 720p [Hurtom]
Released date               : 2016
Cover                       : Yes
Comment                     : http://www.imdb.com/title/tt5954304/
Attachments                 : cover.jpg
ARTIST                      : Арсен Шавлюк, Віктор Андрієнко, Руслана Писанка, Сергій Сивохо, Василь Вірастюк
DIRECTOR                    : Манук Депоян
GENRE                       : анімація, пригодницький, сімейний, комедія, фентезі
SYNOPSIS                    : Анімаційний фільм «Микита Кожум'яка» продовжує історію відомого героя Кирила Кожум'яки, який переміг останнього Змія, тільки головним героєм цієї історії став його 12-річний син Микита, який не володіє надзвичайною фізичною силою батька і тільки завдяки силі характеру повинен перемогти Змія і врятувати світ. У чарівному світі на Микиту і його нових друзів буде чекати багато смішних і динамічних пригод. Це дивовижна казка з захоплюючим сюжетом і щасливим кінцем, в якій розповідається про щирі почуття, справжню дружбу, і про те, що справжнє геройство не у фізичній силі, а в силі духу. Фільм знято за мотивами книги Антона Сіяніки «Микита Кожум'яка».
Url                         : https://toloka.to/t82712

Video
ID                          : 1
Format                      : AVC
Format/Info                 : Advanced Video Codec
Format profile              : [email protected]
Format settings, CABAC      : No
Format settings, ReFrames   : 2 frames
Codec ID                    : V_MPEG4/ISO/AVC
Duration                    : 1 h 26 min
Bit rate                    : 4 007 kb/s
Width                       : 1 280 pixels
Height                      : 718 pixels
Display aspect ratio        : 16:9
Frame rate mode             : Constant
Frame rate                  : 24.000 FPS
Color space                 : YUV
Chroma subsampling          : 4:2:0
Bit depth                   : 8 bits
Scan type                   : Progressive
Bits/(Pixel*Frame)          : 0.182
Stream size                 : 2.42 GiB (95%)
Title                       : Микита Кожум'яка / The Dragon Spell (2016) 720p [iTunes]
Language                    : English
Default                     : Yes
Forced                      : No
Color range                 : Limited
Color primaries             : BT.709
Transfer characteristics    : BT.709
Matrix coefficients         : BT.709

Audio
ID                          : 2
Format                      : AC-3
Format/Info                 : Audio Coding 3
Format settings, Endianness : Big
Codec ID                    : A_AC3
Duration                    : 1 h 26 min
Bit rate mode               : Constant
Bit rate                    : 192 kb/s
Channel(s)                  : 2 channels
Channel positions           : Front: L R
Sampling rate               : 48.0 kHz
Frame rate                  : 31.250 FPS (1536 spf)
Bit depth                   : 16 bits
Compression mode            : Lossy
Stream size                 : 119 MiB (5%)
Title                       : DUB [Pie Post Production, Novyj] 2.0 192 Kbps [Hurtom-Gelios, Sando7]
Language                    : Ukrainian
Service kind                : Complete Main
Default                     : Yes
Forced                      : No

Menu
00:00:00.000                : en:00:00:00
00:05:20.208                : en:00:05:20
00:12:57.958                : en:00:12:57
00:18:46.124                : en:00:18:46
00:24:28.499                : en:00:24:28
00:30:18.249                : en:00:30:18
00:35:41.124                : en:00:35:41
00:41:02.957                : en:00:41:02
00:47:22.665                : en:00:47:22
00:54:12.956                : en:00:54:12
00:58:05.164                : en:00:58:05
01:03:31.664                : en:01:03:31
01:07:02.664                : en:01:07:02
01:11:15.580                : en:01:11:15
01:16:00.871                : en:01:16:00



Джерело: &

Подяка пану Sando7 за запис звуку з ТБ


Золотий реліз (завантажене не впливає на рейтинг)
 Трекер:    Зареєстрований   

Завантажити / скачати український мультфільм



відео для новачків



 Зареєстрований:   2017-07-04 16:10
 Розмір:   2.54 GB 
 Оцінка мультфільму:   5.1/10 (Голосів: 21)
   
Інші релізи
   Микита Кожум'яка / The Dragon Spell (2016) Gelios  36 / 0   1.37 GB   2017-07-07 22:53 
   Микита Кожум'яка / The Dragon Spell (2016) AVC igor911  9 / 0   1.96 GB   2017-07-04 18:01 
   Микита Кожум'яка / The Dragon Spell (2016) 1080p igor911  51 / 0   3.21 GB   2017-07-04 15:18 
   Микита Кожум'яка / The Dragon Spell (2016) AVC sergiyko.5  48 / 0   1.83 GB   2017-05-16 18:58 
   Микита Кожум'яка / The Dragon Spell (2016) DVDRemux krigg070  18 / 0   3.35 GB   2017-05-16 17:45 
Ваш часовий пояс: GMT + 2 Години

Нова тема   Відповісти