Чужий: Заповiт / Alien: Covenant (2017) 720p Ukr/Eng | Sub Kor/Eng

Нові коментарі

Нова тема   Відповісти
Автор Повідомлення
Anonymous 







2017-07-03 17:54  
Чужий: Заповiт / Alien: Covenant (2017) 720p Ukr/Eng | Sub Kor/Eng

Чужий: Заповiт / Alien: Covenant (2017) 720p Ukr/Eng | Sub Kor/Eng


Жанр: жахи, фантастика, трилер
Країна: США, Велика Британія, Австралія, Нова Зеландія, Канада



Кінокомпанія: 20th Century Fox, Scott Free Productions, TSG Entertainment, Brandywine Productions, Moving Picture Company
Режисер: Рідлі Скотт / Ridley Scott
Актори: Майкл Фассбендер / Michael Fassbender, Кетрін Вотерстон / Katherine Waterston, Біллі Крудап / Billy Crudup, Денні МакБрайд / Danny McBride, Деміан Бішир / Demián Bichir, Кармен Еджоґо / Carmen Ejogo, Джуссі Смоллетт / Jussie Smollett, Каллі Ернандес / Callie Hernandez, Емі Саймец / Amy Seimetz, Бенджамін Рігбі / Benjamin Rigby, Натаніель Дін / Nathaniel Dean, Джеймс Франко / James Franco, Ґай Пірс / Guy Pearce та інші

Сюжет:
Команда колоніального корабля "Заповіт" зробила посадку на дуже далеку планету маловідомого куточку галактики. Багато в чому це можна назвати другою Землею, адже там навіть ростуть наші рослини. "Заповіт" ніби знайшов рай за межами нашої планети. Згодом команда розуміє те, що вони не в раю... Це стане для них справжнім пеклом, з незвіданим світом, де єдиним жителем є андроїд на ім'я Девід, єдиний вцілилий з приреченої експедиції "Прометей". Але чи один він залишався на таємничій планеті?
Офіційні українські трейлери:



Рейтинг MPAA: R - особам до 17 років обов'язкова присутність батьків або дорослого опікуна
Вікова категорія: 16+
Тривалість: 02:02:01
Якість: 720p
Відео:
кодек:
розмір кадру: 1280 х 720
бітрейт: 3500 кб/с

Аудіо # 1:
мова: українська
переклад: професійний дубльований | студія Postmodern
кодек: 2.0
бітрейт: 192 кб/с
Інформація про дубляж
Ролі дублювали: Девід/Волтер (Майкл Фассбендер) - Олександр Шевчук, Деніелс (Кетрін Вотерстон) - Юлія Перенчук, Орам (Біллі Крудап) - Андрій Твердак, пілот Теннессі (Денні МакБрайд) - Михайло Кришталь, сержант Лоуп (Деміан Бішир) - Андрій Мостренко, Карін (Кармен Еджоґо) - Катерина Качан, Рікс (Джуссі Смоллетт) - Дмитро Рассказов, Апворс (Каллі Ернандес) - Катерина Брайковська, Феріс (Емі Саймец) - Світлана Шекера, Холлет (Натаніель Дін) - Сергій Солопай, Енкор (Alexander England) - Роман Чорний, Ледварт (Бенджамін Рігбі) - Дмитро Терещук, Коул (Uli Latukefu) - Петро Сова, Розенталь (Tess Haubrich) - Наталя Романько-Кисельова, Мати (голос) - Ольга Радчук, Вейланд (Ґай Пірс) - Олег Лепенець, Бренсон (Джеймс Франко) - Іван Розін
Аудіо # 2:
мова: англійська
переклад: оригінал
кодек: 2.0
бітрейт: 224 кб/с

Субтитри # 1:
мова: корейська
тип: вбудовані (жорсткі)

Субтитри # 2:
мова: англійська
тип: програмні (м'які)
формат: *.srt
Info
Код:
Complete name               : Alien Covenant (2017) [Ukr,Eng sub.Kor,Eng] 720p [Hurtom].
Format                      :
Format version              : Version 4 / Version 2
File size                   : 3.30 GiB
Duration                    : 2 h 2 min
Overall bit rate            : 3 876 kb/s
Movie name                  : Чужий: Заповiт / Alien: Covenant (2017) [Ukr,Eng sub.Kor,Eng] 720p [Hurtom]
Released date               : 2017
Cover                       : Yes
Comment                     : http://www.imdb.com/title/tt2316204/
Attachments                 : cover.jpg
ARTIST                      : Майкл Фассбендер / Michael Fassbender, Кетрін Вотерстон / Katherine Waterston, Біллі Крудап / Billy Crudup, Денні МакБрайд / Danny McBride, Деміан Бішир / Demián Bichir, Кармен Еджоґо / Carmen Ejogo, Джуссі Смоллетт / Jussie Smollett, Каллі Ернандес / Callie Hernandez, Емі Саймец / Amy Seimetz, Натаніель Дін / Nathaniel Dean, Джеймс Франко / James Franco та інші
DIRECTOR                    : Рідлі Скотт / Ridley Scott
GENRE                       : жахи, фантастика, трилер
SYNOPSIS                    : Команда колоніального корабля "Заповіт" зробила посадку на дуже далеку планету маловідомого куточку галактики. Багато в чому це можна назвати другою Землею, адже там навіть ростуть наші рослини. "Заповіт" ніби знайшов рай за межами нашої планети. Згодом команда розуміє те, що вони не в раю... Це стане для них справжнім пеклом, з незвіданим світом, де єдиним жителем є андроїд на ім'я Девід, єдиний вцілилий з приреченої експедиції "Прометей". Але чи один він залишався на таємничій планеті?
Url                         : https://toloka.to/t82697

Video
ID                          : 1
Format                      : AVC
Format/Info                 : Advanced Video Codec
Format profile              : [email protected]
Format settings, CABAC      : Yes
Format settings, ReFrames   : 4 frames
Codec ID                    : V_MPEG4/ISO/AVC
Duration                    : 2 h 2 min
Bit rate                    : 3 500 kb/s
Width                       : 1 280 pixels
Height                      : 720 pixels
Display aspect ratio        : 16:9
Frame rate mode             : Constant
Frame rate                  : 30.000 FPS
Color space                 : YUV
Chroma subsampling          : 4:2:0
Bit depth                   : 8 bits
Scan type                   : Progressive
Bits/(Pixel*Frame)          : 0.127
Stream size                 : 2.95 GiB (89%)
Title                       : Чужий: Заповiт / Alien: Covenant (2017) 720p [STUTTERSHIT]
Writing library             : core 148 r2694 3b70645
Encoding settings           : cabac=1 / ref=4 / deblock=1:0:0 / analyse=0x3:0x113 / me=umh / subme=8 / psy=1 / psy_rd=1.00:0.00 / mixed_ref=1 / me_range=16 / chroma_me=1 / trellis=1 / 8x8dct=1 / cqm=0 / deadzone=21,11 / fast_pskip=1 / chroma_qp_offset=-2 / threads=40 / lookahead_threads=5 / sliced_threads=0 / nr=0 / decimate=1 / interlaced=0 / bluray_compat=0 / constrained_intra=0 / bframes=3 / b_pyramid=2 / b_adapt=2 / b_bias=0 / direct=3 / weightb=1 / open_gop=0 / weightp=2 / keyint=250 / keyint_min=25 / scenecut=40 / intra_refresh=0 / rc_lookahead=50 / rc=abr / mbtree=1 / bitrate=3500 / ratetol=1.0 / qcomp=0.60 / qpmin=0 / qpmax=69 / qpstep=4 / ip_ratio=1.40 / aq=1:1.00
Language                    : English
Default                     : Yes
Forced                      : No

Audio #1
ID                          : 2
Format                      : AC-3
Format/Info                 : Audio Coding 3
Format settings, Endianness : Big
Codec ID                    : A_AC3
Duration                    : 2 h 2 min
Bit rate mode               : Constant
Bit rate                    : 192 kb/s
Channel(s)                  : 2 channels
Channel positions           : Front: L R
Sampling rate               : 48.0 kHz
Frame rate                  : 31.250 FPS (1536 spf)
Bit depth                   : 16 bits
Compression mode            : Lossy
Delay relative to video     : -42 ms
Stream size                 : 168 MiB (5%)
Title                       : Dub [Postmodern, Line] 2.0 192 Kbps [Hurtom-Covenant]
Language                    : Ukrainian
Service kind                : Complete Main
Default                     : Yes
Forced                      : Yes

Audio #2
ID                          : 3
Format                      :
Format/Info                 : Advanced Audio Codec
Format profile              : LC
Codec ID                    : A_AAC
Duration                    : 2 h 2 min
Bit rate                    : 224 kb/s
Channel(s)                  : 2 channels
Channel positions           : Front: L R
Sampling rate               : 48.0 kHz
Frame rate                  : 46.875 FPS (1024 spf)
Compression mode            : Lossy
Delay relative to video     : -42 ms
Stream size                 : 195 MiB (6%)
Title                       : Original, 2.0 224 Kbps
Language                    : English
Default                     : No
Forced                      : No

Text
ID                          : 4
Format                      : UTF-8
Codec ID                    : S_TEXT/UTF8
Codec ID/Info               : UTF-8 Plain Text
Duration                    : 1 h 55 min
Bit rate                    : 41 b/s
Count of elements           : 1323
Stream size                 : 34.8 KiB (0%)
Title                       : Eng full
Language                    : English
Default                     : No
Forced                      : No
Скріншоти:

Джерело: &
Подяка за український звук Covenant


 Трекер:    Зареєстрований   

Завантажити / скачати фільм українською



відео для новачків



 Зареєстрований:   2017-07-03 18:51
 Розмір:   3.3 GB 
 Оцінка фільму:   6.3/10 (Голосів: 35)
   
Інші релізи
   Чужий: Заповiт / Alien: Covenant (2017) 1080p Ukr/Eng | Sub Kor/Eng igor911  71 / 0   4.15 GB   2017-07-03 20:04 
   Чужий: Заповiт / Alien: Covenant (2017) AVC Ukr/Eng vovikmar  54 / 0   2.77 GB   2017-07-03 19:50 
   Чужий: Заповiт / Alien: Covenant (2017) Covenant  107 / 0   1.54 GB   2017-07-03 16:45 
boroznaya 
VIP


З нами з: 02.11.12
Востаннє: 23.07.17
Повідомлень: 2238

2017-07-03 18:40  
Бачила у кінотеатрі. До попередніх частин далекувато, але я задоволена побаченим. Чекатиму на реліз.
aalleexx85 
Відео Гуртом - фільмокрай
Відео Гуртом - фільмокрай


З нами з: 27.07.10
Востаннє: 22.07.17
Повідомлень: 1167

2017-07-04 21:53  
треш
Ваш часовий пояс: GMT + 2 Години

Нова тема   Відповісти