Чужий: Заповіт / Alien: Covenant (2017) 720p Ukr/Eng | Sub Ukr/Eng

Нові коментарі

Нова тема   Відповісти
Автор Повідомлення
Anonymous 







2017-07-03 17:54  
Чужий: Заповіт / Alien: Covenant (2017) 720p Ukr/Eng | Sub Ukr/Eng

Чужий: Заповіт / Alien: Covenant (2017) 720p Ukr/Eng | Sub Ukr/Eng


Жанр: жахи, фантастика, трилер
Країна: США, Велика Британія, Австралія, Нова Зеландія, Канада



Кінокомпанія: 20th Century Fox, Scott Free Productions, TSG Entertainment, Brandywine Productions, Moving Picture Company
Режисер: Рідлі Скотт / Ridley Scott
Актори: Майкл Фассбендер / Michael Fassbender, Кетрін Вотерстон / Katherine Waterston, Біллі Крудап / Billy Crudup, Денні МакБрайд / Danny McBride, Деміан Бішир / Demián Bichir, Кармен Еджоґо / Carmen Ejogo, Джуссі Смоллетт / Jussie Smollett, Каллі Ернандес / Callie Hernandez, Емі Саймец / Amy Seimetz, Бенджамін Рігбі / Benjamin Rigby, Натаніель Дін / Nathaniel Dean, Джеймс Франко / James Franco, Ґай Пірс / Guy Pearce та інші

Сюжет:
Команда колоніального корабля "Заповіт" зробила посадку на дуже далеку планету маловідомого куточку галактики. Багато в чому це можна назвати другою Землею, адже там навіть ростуть наші рослини. "Заповіт" ніби знайшов рай за межами нашої планети. Згодом команда розуміє те, що вони не в раю... Це стане для них справжнім пеклом, з незвіданим світом, де єдиним жителем є андроїд на ім'я Девід, єдиний вцілилий з приреченої експедиції "Прометей". Але чи один він залишався на таємничій планеті?
Офіційні українські трейлери:



Рейтинг MPAA: R - особам до 17 років обов'язкова присутність батьків або дорослого опікуна
Вікова категорія: 16+
Тривалість: 02:02:03
Якість: 720p
Відео:
кодек:
розмір кадру: 1280 х 534
бітрейт: 7500 кб/с

Аудіо # 1:
мова: українська
переклад: професійний дубльований | студія Postmodern
кодек: 5.1
бітрейт: 448 кб/с
Інформація про дубляж
Ролі дублювали: Девід/Волтер (Майкл Фассбендер) - Олександр Шевчук, Деніелс (Кетрін Вотерстон) - Юлія Перенчук, Орам (Біллі Крудап) - Андрій Твердак, пілот Теннессі (Денні МакБрайд) - Михайло Кришталь, сержант Лоуп (Деміан Бішир) - Андрій Мостренко, Карін (Кармен Еджоґо) - Катерина Качан, Рікс (Джуссі Смоллетт) - Дмитро Рассказов, Апворс (Каллі Ернандес) - Катерина Брайковська, Феріс (Емі Саймец) - Світлана Шекера, Холлет (Натаніель Дін) - Сергій Солопай, Енкор (Alexander England) - Роман Чорний, Ледварт (Бенджамін Рігбі) - Дмитро Терещук, Коул (Uli Latukefu) - Петро Сова, Розенталь (Tess Haubrich) - Наталя Романько-Кисельова, Мати (голос) - Ольга Радчук, Вейланд (Ґай Пірс) - Олег Лепенець, Бренсон (Джеймс Франко) - Іван Розін
Аудіо # 2:
мова: англійська
переклад: оригінал
кодек: 5.1
бітрейт: 640 кб/с

Субтитри # 1:
мова: українська
тип: програмні (м'які)
формат: srt

Субтитри # 2-3:
мова: англійська (повні, SDH)
тип: програмні (м'які)
формат: *.srt

Збережено оригінальні розділи, як на Blu-ray
Info
Код:
Complete name               : Alien Covenant (2017) [Ukr,Eng sub.Ukr,Eng] 720p [Hurtom].
Format                      :
Format version              : Version 4 / Version 2
File size                   : 7.30 GiB
Duration                    : 2 h 2 min
Overall bit rate            : 8 566 kb/s
Cover                       : Yes
Attachments                 : cover.jpg

Video
ID                          : 1
Format                      : AVC
Format/Info                 : Advanced Video Codec
Format profile              : [email protected]
Format settings, CABAC      : Yes
Format settings, RefFrames  : 12 frames
Codec ID                    : V_MPEG4/ISO/AVC
Duration                    : 2 h 2 min
Bit rate                    : 7 500 kb/s
Width                       : 1 280 pixels
Height                      : 534 pixels
Display aspect ratio        : 2.40:1
Frame rate mode             : Constant
Frame rate                  : 23.976 (24000/1001) FPS
Color space                 : YUV
Chroma subsampling          : 4:2:0
Bit depth                   : 8 bits
Scan type                   : Progressive
Bits/(Pixel*Frame)          : 0.458
Stream size                 : 6.37 GiB (87%)
Title                       : Чужий: Заповiт / Alien: Covenant (2017) 720p
Writing library             : core 150 r2833+58 090e24f t_mod_Custom [[email protected] X86_64]
Encoding settings           : cabac=1 / ref=12 / deblock=1:-3:-3 / analyse=0x3:0x133 / me=umh / subme=10 / psy=1 / fade_compensate=0.00 / psy_rd=1.05:0.00 / mixed_ref=1 / me_range=32 / chroma_me=1 / trellis=2 / 8x8dct=1 / cqm=0 / deadzone=21,11 / fast_pskip=0 / chroma_qp_offset=-2 / threads=12 / lookahead_threads=2 / sliced_threads=0 / nr=0 / decimate=0 / interlaced=0 / bluray_compat=0 / constrained_intra=0 / fgo=0 / bframes=8 / b_pyramid=2 / b_adapt=2 / b_bias=0 / direct=3 / weightb=1 / open_gop=0 / weightp=2 / keyint=250 / keyint_min=23 / scenecut=40 / intra_refresh=0 / rc_lookahead=75 / rc=2pass / mbtree=0 / bitrate=7500 / ratetol=1.0 / qcomp=0.60 / qpmin=0:0:0 / qpmax=69:69:69 / qpstep=4 / cplxblur=20.0 / qblur=0.5 / vbv_maxrate=50000 / vbv_bufsize=62500 / nal_hrd=none / filler=0 / ip_ratio=1.20 / pb_ratio=1.20 / aq=3:0.75 / aq-sensitivity=10.00 / aq-factor=1.00:1.00:1.00 / aq2=0 / aq3=0
Language                    : English
Default                     : Yes
Forced                      : No

Audio #1
ID                          : 2
Format                      : AC-3
Format/Info                 : Audio Coding 3
Format settings, Endianness : Big
Codec ID                    : A_AC3
Duration                    : 2 h 2 min
Bit rate mode               : Constant
Bit rate                    : 448 kb/s
Channel(s)                  : 6 channels
Channel positions           : Front: L C R, Side: L R, LFE
Sampling rate               : 48.0 kHz
Frame rate                  : 31.250 FPS (1536 SPF)
Bit depth                   : 16 bits
Compression mode            : Lossy
Stream size                 : 391 MiB (5%)
Title                       : Dub [Postmodern, Blu-ray CEE] 5.1 448 Kbps
Language                    : Ukrainian
Service kind                : Complete Main
Default                     : Yes
Forced                      : Yes

Audio #2
ID                          : 3
Format                      : AC-3
Format/Info                 : Audio Coding 3
Format settings, Endianness : Big
Codec ID                    : A_AC3
Duration                    : 2 h 2 min
Bit rate mode               : Constant
Bit rate                    : 640 kb/s
Channel(s)                  : 6 channels
Channel positions           : Front: L C R, Side: L R, LFE
Sampling rate               : 48.0 kHz
Frame rate                  : 31.250 FPS (1536 SPF)
Bit depth                   : 16 bits
Compression mode            : Lossy
Stream size                 : 559 MiB (7%)
Title                       : Original, 5.1 640 Kbps
Language                    : English
Service kind                : Complete Main
Default                     : No
Forced                      : No

Text #1
ID                          : 4
Format                      : UTF-8
Codec ID                    : S_TEXT/UTF8
Codec ID/Info               : UTF-8 Plain Text
Duration                    : 2 h 0 min
Bit rate                    : 70 b/s
Count of elements           : 1343
Stream size                 : 61.8 KiB (0%)
Title                       : Ukr full [Blu-ray CEE]
Language                    : Ukrainian
Default                     : No
Forced                      : No

Text #2
ID                          : 5
Format                      : UTF-8
Codec ID                    : S_TEXT/UTF8
Codec ID/Info               : UTF-8 Plain Text
Duration                    : 1 h 54 min
Bit rate                    : 44 b/s
Count of elements           : 1451
Stream size                 : 36.8 KiB (0%)
Title                       : Eng full
Language                    : English
Default                     : No
Forced                      : No

Text #3
ID                          : 6
Format                      : UTF-8
Codec ID                    : S_TEXT/UTF8
Codec ID/Info               : UTF-8 Plain Text
Duration                    : 1 h 54 min
Bit rate                    : 52 b/s
Count of elements           : 1709
Stream size                 : 44.3 KiB (0%)
Title                       : Eng SDH
Language                    : English
Default                     : No
Forced                      : No

Menu
00:00:00.000                : en:00:00:00.000
00:04:47.662                : en:00:04:47.662
00:13:07.495                : en:00:13:07.495
00:18:11.924                : en:00:18:11.924
00:22:46.448                : en:00:22:46.448
00:27:51.169                : en:00:27:51.169
00:33:12.908                : en:00:33:12.908
00:37:18.736                : en:00:37:18.736
00:42:19.912                : en:00:42:19.912
00:47:43.694                : en:00:47:43.694
00:52:04.371                : en:00:52:04.371
00:55:56.270                : en:00:55:56.270
01:00:17.447                : en:01:00:17.447
01:06:20.643                : en:01:06:20.643
01:11:25.031                : en:01:11:25.031
01:16:35.883                : en:01:16:35.883
01:21:10.032                : en:01:21:10.032
01:28:18.793                : en:01:28:18.793
01:31:21.559                : en:01:31:21.559
01:34:52.437                : en:01:34:52.437
01:39:23.666                : en:01:39:23.666
01:43:35.876                : en:01:43:35.876
01:50:49.309                : en:01:50:49.309
01:55:27.754                : en:01:55:27.754


Джерело: &

Увага! 03.09.2107 Реліз оновлено - замінено українську доріжку на ліцензійну 5.1 з блурея та додано українські субтитри.
Перезавантажте, будь ласка, торрент.


 Трекер:    Зареєстрований   

Завантажити / скачати фільм українською



відео для новачків



 Зареєстрований:   2017-09-03 15:26
 Розмір:   7.3 GB 
 Оцінка фільму:   7.4/10 (Голосів: 66)
   
boroznaya 
VIP


З нами з: 02.11.12
Востаннє: 24.09.17
Повідомлень: 2294

2017-07-03 18:40  
Бачила у кінотеатрі. До попередніх частин далекувато, але я задоволена побаченим. Чекатиму на реліз.
aalleexx85 
Відео Гуртом - фільмокрай
Відео Гуртом - фільмокрай


З нами з: 27.07.10
Востаннє: 24.09.17
Повідомлень: 1175

2017-07-04 21:53  
треш
Anonymous 







2017-08-05 12:27  
Реліз оновлено, замінено відеоряд на .
золото на тиждень

madagaskar1 
VIP


З нами з: 08.05.14
Востаннє: 24.09.17
Повідомлень: 308

2017-08-05 13:29  
а форсовані субтитри таки відсутні Cry (1) Cry (2) Sad (2) Sad (1)
Урдулак 
Новенький


З нами з: 20.12.13
Востаннє: 24.09.17
Повідомлень: 4

2017-08-05 13:42  
О, нарешті можна подивитись, дякую за оперативність, не вірю що він такий як його негативно оцінили.
boroznaya 
VIP


З нами з: 02.11.12
Востаннє: 24.09.17
Повідомлень: 2294

2017-08-05 15:17  
Студія 20th Century Fox досі додає звук 5.1? Буде можливість глянути з ліцензійним українським озвученням?
Anonymous 







2017-08-05 15:25  
boroznaya, див. https://toloka.to/t82700#912075
boroznaya 
VIP


З нами з: 02.11.12
Востаннє: 24.09.17
Повідомлень: 2294

2017-08-05 18:31  
Anonymous
Дуже гарна новина! Спасибі Вам!

Nikko033 
VIP


З нами з: 31.12.12
Востаннє: 25.09.17
Повідомлень: 344

2017-08-07 18:15  
у Рідлі вийшло! дно пробито!.. фільм настільки паскудний, що я навіть не знаю з чого почати. буквально кожна частина фільму максимально тупорила! сюжет (якщо його так можна назвати) взагалі не дружить з логікою. практично весь фільм сидів і думав, що за дикість твориться на екрані... одним словом режисер остаточно зас..ав франшизу з чим його й поздоровляєм! 1/10
eugene_ramone 
Новенький


З нами з: 24.02.14
Востаннє: 22.09.17
Повідомлень: 15

2017-08-19 19:09  
Значно краще ніж 3-й та 4-й фільми, але гірше ніж 1-й, 2-й та "Прометей". Загалом, непогане кіно. Атмосфера та саундтрек чудові.
michalych 
Частий відвідувач


З нами з: 14.09.10
Востаннє: 24.09.17
Повідомлень: 34

2017-08-21 18:36  
Якось усе банально. Чи може я зіпсований "Сталкером" і "Космічною одісеєю"?
Pylorama 
Новенький


З нами з: 19.10.12
Востаннє: 24.09.17
Повідомлень: 8

2017-08-25 23:46  
6/10
Anonymous 







2017-09-03 15:36  
Реліз оновлено - замінено українську доріжку на ліцензійну 5.1 з блурея та додано українські субтитри.
Jogino 
Новенький


З нами з: 21.04.13
Востаннє: 23.09.17
Повідомлень: 15

2017-09-06 12:51  
Не розумію настільки негативних відгуків. Так, це не фільм-року, але сюжет доволі захопливий, хороша графіка та гра акторів. 9 балів.
Ваш часовий пояс: GMT + 2 Години

Нова тема   Відповісти