500 днів літа / (500) Days of Summer (2009) 1080p 2xUkr/Eng | Sub Ukr/Eng

Нові коментарі

Нова тема   Відповісти
Автор Повідомлення
IronBee 
Свій


З нами з: 08.02.10
Востаннє: 25.11.17
Повідомлень: 80

2017-07-02 21:17  
500 днів літа / (500) Days of Summer (2009) 1080p 2xUkr/Eng | Sub Ukr/Eng

500 днів літа / (500) Days of Summer (2009) 1080p 2xUkr/Eng | Sub Ukr/Eng


Жанр: комедія, драма, романтичний
Країна: США



Кінокомпанія: Fox Searchlight Pictures, Watermark, Dune Entertainment III
Режисер: Марк Веб
Актори: Джозеф Ґордон-Левіт, Зої Дешанель, Джефрі Аренд, Хлоя Ґрейс Морец, Метью Ґрей Ґаблер, Кларк Ґреґґ, Патріція Белчер, Рейчел Бостон, Мінка Келі, Чарльз Волкер

Сюжет:
Головний герой працює в агентстві, що випускає вітальні листівки. Він закохується в свою колегу і вирішує, що вона - «та, єдина». Але 500 днів їх відносин показують героєві, що шлях до щастя непередбачуваний, неконтрольований і неймовірно кумедний!


Тривалість: 01:35:04
Якість: 1080p
Відео:
кодек:
розмір кадру: 1920 х 800
бітрейт: 13.0 Mb/s

Аудіо # 1:
мова: українська
переклад: багатоголосий закадровий
кодек: 2.0
бітрейт: 192 кб/с

Аудіо # 2:
мова: українська (Hurtom)
переклад: любительський багатоголосий закадровий
кодек: 5.1
бітрейт: 384 кб/с
Ролі озвучували: Антон Ціватий, Вадим Пелех, Анастасія Ковбасенко, Ліра Грім та Олексій Кузнєцов
Робота з текстом: Олена Жайворонок
Звукорежисер: Олег Гуцало
Координатор: Мирон Товстюк

Аудіо # 3:
мова: англійська
переклад: оригінал
кодек: 5.1
бітрейт: 1509 кб/с

Аудіо # 4:
мова: англійська
переклад: коментарі
кодек: 2.0
бітрейт: 64 кб/с

Субтитри # 1:
мова: українська
тип: програмні (м'які)
формат: *.srt

Субтитри # 2:
мова: англійська
тип: програмні (м'які)
формат: *.srt
Info
General
Unique ID : 232250129420827555932685095739147359263 (0xAEB9BF75526017A29D402DDAF0F3141F)
Complete name : D:\Films\(500) Days of Summer (2009) 1080p [2Ukr.Eng ] [Sub Ukr.Eng] [Hurtom].
Format :
Format version : Version 4 / Version 2
File size : 10.1 GiB
Duration : 1 h 35 min
Overall bit rate : 15.2 Mb/s
Movie name : (500) Days of Summer (2009) - Release for HDCLUB by -DaRkY-
Encoded date : UTC 2017-07-02 14:46:06
Writing application : mkvmerge v13.0.0 ('The Juggler') 64bit
Writing library : libebml v1.3.4 + libmatroska v1.4.5

Video
ID : 1
Format : AVC
Format/Info : Advanced Video Codec
Format profile : [email protected]
Format settings, CABAC : Yes
Format settings, ReFrames : 4 frames
Codec ID : V_MPEG4/ISO/AVC
Duration : 1 h 35 min
Bit rate : 13.0 Mb/s
Width : 1 920 pixels
Height : 800 pixels
Display aspect ratio : 2.40:1
Frame rate mode : Constant
Frame rate : 23.976 FPS
Color space : YUV
Chroma subsampling : 4:2:0
Bit depth : 8 bits
Scan type : Progressive
Bits/(Pixel*Frame) : 0.353
Stream size : 8.63 GiB (86%)
Writing library : core 79 r1354M 636f98f
Encoding settings : cabac=1 / ref=4 / deblock=1:-3:-3 / analyse=0x3:0x113 / me=umh / subme=10 / psy=1 / psy_rd=1.0:0.2 / mixed_ref=1 / me_range=24 / chroma_me=1 / trellis=2 / 8x8dct=1 / cqm=0 / deadzone=21,11 / chroma_qp_offset=-3 / threads=8 / nr=0 / decimate=0 / mbaff=0 / constrained_intra=0 / bframes=5 / b_pyramid=2 / b_adapt=2 / b_bias=0 / direct=3 / wpredb=1 / wpredp=2 / keyint=250 / keyint_min=25 / scenecut=40 / rc=2pass / mbtree=0 / bitrate=13000 / ratetol=1.0 / qcomp=0.60 / qpmin=10 / qpmax=51 / qpstep=4 / cplxblur=20.0 / qblur=0.5 / ip_ratio=1.40 / pb_ratio=1.30 / aq=1:0.50
Language : English
Default : Yes
Forced : No

Audio #1
ID : 2
Format : AC-3
Format/Info : Audio Coding 3
Mode extension : CM (complete main)
Format settings, Endianness : Big
Codec ID : A_AC3
Duration : 1 h 35 min
Bit rate mode : Constant
Bit rate : 192 kb/s
Channel(s) : 2 channels
Channel positions : Front: L R
Sampling rate : 48.0 kHz
Frame rate : 31.250 FPS (1536 spf)
Bit depth : 16 bits
Compression mode : Lossy
Stream size : 131 MiB (1%)
Default : Yes
Forced : No

Audio #2
ID : 3
Format : AC-3
Format/Info : Audio Coding 3
Mode extension : CM (complete main)
Format settings, Endianness : Big
Codec ID : A_AC3
Duration : 1 h 35 min
Bit rate mode : Constant
Bit rate : 384 kb/s
Channel(s) : 6 channels
Channel positions : Front: L C R, Side: L R, LFE
Sampling rate : 48.0 kHz
Frame rate : 31.250 FPS (1536 spf)
Bit depth : 16 bits
Compression mode : Lossy
Stream size : 261 MiB (3%)
Default : No
Forced : No

Audio #3
ID : 4
Format :
Format/Info : Digital Theater Systems
Mode : 16
Format settings, Endianness : Big
Codec ID : A_DTS
Duration : 1 h 35 min
Bit rate mode : Constant
Bit rate : 1 509 kb/s
Channel(s) : 6 channels
Channel positions : Front: L C R, Side: L R, LFE
Sampling rate : 48.0 kHz
Frame rate : 93.750 FPS (512 spf)
Bit depth : 24 bits
Compression mode : Lossy
Stream size : 1.00 GiB (10%)
Title : 5.1 1536 kbps
Language : English
Default : No
Forced : No

Audio #4
ID : 5
Format :
Format/Info : Advanced Audio Codec
Format profile : HE- / LC
Codec ID : A_AAC
Duration : 1 h 35 min
Bit rate : 64.0 kb/s
Channel(s) : 2 channels
Channel positions : Front: L R
Sampling rate : 48.0 kHz / 24.0 kHz
Frame rate : 23.438 FPS (1024 spf)
Compression mode : Lossy
Stream size : 43.5 MiB (0%)
Title : -HE 2.0 64 kbps Commentary
Language : English
Default : No
Forced : No

Text #1
ID : 6
Format : UTF-8
Codec ID : S_TEXT/UTF8
Codec ID/Info : UTF-8 Plain Text
Duration : 1 h 29 min
Bit rate : 88 b/s
Count of elements : 1163
Stream size : 58.5 KiB (0%)
Language : Ukrainian
Default : No
Forced : No

Text #2
ID : 7
Format : UTF-8
Codec ID : S_TEXT/UTF8
Codec ID/Info : UTF-8 Plain Text
Duration : 1 h 32 min
Bit rate : 64 b/s
Count of elements : 1321
Stream size : 43.6 KiB (0%)
Language : English
Default : No
Forced : No

Menu
00:00:00.000 : en:Main Titles/ The One
00:03:57.779 : en:Consoling Tom
00:07:05.425 : en:Rare Quality
00:09:19.184 : en:Early Days
00:13:34.147 : en:Officially in Love
00:14:22.320 : en:High and Low
00:16:53.429 : en:Office Karaoke
00:19:18.699 : en:Agree to Disagree
00:24:29.927 : en:Progress Report
00:27:00.285 : en:Shopping
00:30:39.755 : en:Keeping it Casual
00:33:27.422 : en:Just Having Fun
00:35:33.506 : en:Lock Up
00:38:14.375 : en:Summer's World
00:43:46.874 : en:Defining Moment
00:52:24.141 : en:Suffering
00:56:47.154 : en:Second Opinion
01:00:26.039 : en:Chance Encounter
01:06:24.731 : en:Expectations/Reality
01:10:49.787 : en:The Cynic
01:15:15.052 : en:Not the One
01:19:00.778 : en:Fresh Start
01:21:22.920 : en:I Just Knew
01:27:08.557 : en:First Day of Autumn/End Titles
Скріншоти




Джерело: &
Особиста оцінка: 10 - без зайвих вагань рекомендую всім!



 Трекер:    Зареєстрований   

Завантажити / скачати фільм українською



відео для новачків



 Зареєстрований:   2017-07-02 21:17
 Розмір:   10.06 GB 
 Оцінка фільму:   9.2/10 (Голосів: 14)
   
Ваш часовий пояс: GMT + 2 Години

Нова тема   Відповісти