Бліч: Зникаючи в пітьмі, я кличу тебе / Gekijouban Bleach: Fade to Black Kimi no Na o Yobu / 劇場版 BLEACH Fade to Black 君の名を呼ぶ [2008] 720p

Нові коментарі

Нова тема   Відповісти
Автор Повідомлення
Arch Enemy 
VIP


З нами з: 30.08.12
Востаннє: 21.08.17
Повідомлень: 644

2017-07-02 17:00  
Бліч: Зникаючи в пітьмі, я кличу тебе / Gekijouban Bleach: Fade to Black Kimi no Na o Yobu



Країна: Японія
Прем'єра: 13.12.2008
Жанр: пригоди, шьонен, комедія, драма
Аніместудія: Studio Pierrot

Тривалість: 01год. 33хв. 54сек.

Режисер: Абе Норіюкі
Автор Оригіналу: Кубо Тайто
Сейю: Моріта Масаказу (Куросакі Ічіґо), Іто Кентаро (Абарай Ренджі), Паку Ромі (Хіцуґая Тошіро), Орікаса Фуміко (Кучікі Рукія, Кучікі Хісана), Хірано Ая (Хомура), Камія Хіроші (Шізуку), Ніші Рінтаро (Іба Тецузаемон), Окіаю Рьотаро (Кучікі Б'якуя), Накао Рюусей (Куроцучі Маюрі), Куґімія Ріе (Куроцучі Нему), Мочізукі Хісайо (Кусаджіші Ячіру), Ооцука Акіо (Кіораку Шунсуй), Хіяма Нобуюкі (Мадараме Ікаку), Мацутані Кая (Мацумото Ранґіку), Кавакамі Томоко (Сой Фон), Ішікава Хідео (Укітаке Джюушіро), Мікі Шінчіро (Урахара Кіске), Цукада Масаакі (Ямамото Ґенрюусай Шіґекуні), Тачікі Фуміхіко (Заракі Кенпачі), Юкіно Сацукі (Шіхоін Йоруічі) та інші.

Сюжет:
У дослідницькій лабораторії Куроцучі Маюрі стається катастрофа, а потім одна особа зникає з пам'яті усіх. Куросакі Ічіґо на деякий час також не пам'ятає цієї особи, завдяки силі, котру він отримав від неї, він згадує Кучікі Рукію. Надалі, щоб розплутати цю історію та допомогти усім згадати Рукію, він вирушає до Товариства Душ, але як виявляється, про нього там теж забули і ставляться як до порушника. Як наслідок, усі загони замість розслідування інциденту з лабораторією починають ганятися за порушником, підсвідомо розуміючи, що він є ключем для розгадки їхньої проблеми. Зустрівши Рукію, Ічіґо бачить її у супроводі двох незнайомців і замість теплого прийому він отримує від неї запитання "Хто ти?". Що ж сталося з усіма і хто винен у цьому?

© Arch_Enemy

Відео:
якість:
контейнер:
кодек:
частота кадрів: 23.976 кадрів/сек.
розмір кадру: 1276х688 пікс.
бітрейт: ~2000 кбіт/сек.
бітність: 10 біт.

Аудіо:
мова: українська, двоголосе закадрове озвучення.
кодек:
кількість каналів: 2.0
бітрейт: 192 кбіт/сек.
частота: 48000 Гц
Джерело озвучення: AniUA

текст читали: Henessi та Maslinka
переклад: MadGuy
таймінг звуку: Kohinsan
робота зі звуком: Arch_Enemy

Джерело релізу: AniUA
Скріншоти
Скрінлист
MI
General
Unique ID : 188505860367795009956243241689819489735 (0x8DD0E87A63242DD88384708DB451A5C7)
Complete name : D:\Anime\[AniUA]_BLEACH_[UKR]\[AniUA]_[Movie_03]_Gekijouban_Bleach_-_Fade_to_Black_Kimi_no_Na_o_Yobu_[2008]_[BDRip_x264_Hi10P_1276x688_AC3]_[Hennessi_and_Maslinka].
Format :
Format version : Version 4 / Version 2
File size : 1.47 GiB
Duration : 1 h 33 min
Overall bit rate : 2 232 kb/s
Encoded date : UTC 2017-06-30 21:00:13
Writing application : mkvmerge v11.0.0 ('Alive') 64bit
Writing library : libebml v1.3.4 + libmatroska v1.4.5

Video
ID : 1
Format : AVC
Format/Info : Advanced Video Codec
Format profile : High 4:4:4 [email protected]
Format settings, CABAC : Yes
Format settings, ReFrames : 16 frames
Codec ID : V_MPEG4/ISO/AVC
Duration : 1 h 33 min
Bit rate : 2 040 kb/s
Width : 1 276 pixels
Height : 688 pixels
Display aspect ratio : 1.85:1
Frame rate mode : Constant
Frame rate : 23.976 (24000/1001) FPS
Color space : YUV
Chroma subsampling : 4:4:4
Bit depth : 10 bits
Scan type : Progressive
Bits/(Pixel*Frame) : 0.097
Stream size : 1.34 GiB (91%)
Title : http://aniua.com/
Writing library : core 125 r0+2868M 54929fe
Encoding settings : cabac=1 / ref=16 / deblock=1:0:0 / analyse=0x3:0x133 / me=umh / subme=10 / psy=1 / psy_rd=1.00:0.00 / mixed_ref=1 / me_range=32 / chroma_me=1 / trellis=2 / 8x8dct=1 / cqm=0 / deadzone=21,11 / fast_pskip=0 / chroma_qp_offset=4 / threads=1 / lookahead_threads=1 / sliced_threads=0 / nr=0 / decimate=0 / interlaced=0 / bluray_compat=0 / constrained_intra=0 / bframes=8 / b_pyramid=2 / b_adapt=2 / b_bias=0 / direct=3 / weightb=1 / open_gop=0 / weightp=2 / keyint=250 / keyint_min=23 / scenecut=40 / intra_refresh=0 / rc_lookahead=60 / rc=crf / mbtree=1 / crf=13.0 / qcomp=0.60 / qpmin=0 / qpmax=81 / qpstep=4 / ip_ratio=1.40 / aq=2:1.00
Language : Japanese
Default : Yes
Forced : Yes
Color range : Limited
Color primaries : BT.709
Matrix coefficients : BT.709

Audio
ID : 2
Format : AC-3
Format/Info : Audio Coding 3
Format settings, Endianness : Big
Codec ID : A_AC3
Duration : 1 h 33 min
Bit rate mode : Constant
Bit rate : 192 kb/s
Channel(s) : 2 channels
Channel positions : Front: L R
Sampling rate : 48.0 kHz
Frame rate : 31.250 FPS (1536 spf)
Bit depth : 16 bits
Compression mode : Lossy
Stream size : 129 MiB (9%)
Title : Hennessi and Maslinka
Language : Ukrainian
Service kind : Complete Main
Default : Yes
Forced : Yes


Авторський реліз (завантажувати можна без реєстрації)
 Трекер:    Зареєстрований   

Завантажити / скачати аніме українською



відео для новачків



 Зареєстрований:   2017-07-02 17:00
 Розмір:   1.47 GB 
 Оцінка аніме:   9.8/10 (Голосів: 5)
   
Ліхтарник 
VIP


З нами з: 16.09.14
Востаннє: 21.08.17
Повідомлень: 614

2017-07-02 20:40  
Дякую, за озвучення фільму!
А чий постер?

Arch Enemy 
VIP


З нами з: 30.08.12
Востаннє: 21.08.17
Повідомлень: 644

2017-07-02 21:05  
Ліхтарник написано:
Дякую, за озвучення фільму!

Прошу, на черзі 4й фільм (переклад вже є) + буду ще просити Меда за ОВАшки.

Ліхтарник написано:
А чий постер?

Постер мій, як і до всіх інших фільмів.

Phantom 
Відео Гуртом - підтримка та поширення
Відео Гуртом - підтримка та поширення


З нами з: 29.01.08
Востаннє: 21.08.17
Повідомлень: 350

2017-07-03 07:28  
Дякую за озвучення!!! Питання. Це окреме аніме? Чи варто перед ним щось подивитись ще ?
Tentenkunchan 
Частий відвідувач


З нами з: 22.05.12
Востаннє: 20.08.17
Повідомлень: 28

2017-07-03 12:51  
Phantom
Серій так 100 з гаком. =)

Ваш часовий пояс: GMT + 2 Години

Нова тема   Відповісти