Бліч: Зникаючи в пітьмі, я кличу тебе / Gekijouban Bleach: Fade to Black Kimi no Na o Yobu / 劇場版 BLEACH Fade to Black 君の名を呼ぶ [2008] 1080p Ukr/Jap

Нові коментарі

Нова тема   Відповісти
Автор Повідомлення
Arch Enemy 
VIP


З нами з: 30.08.12
Востаннє: 21.08.17
Повідомлень: 644

2017-07-02 15:00  
Бліч: Зникаючи в пітьмі, я кличу тебе / Gekijouban Bleach: Fade to Black Kimi no Na o Yobu



Країна: Японія
Прем'єра: 13.12.2008
Жанр: пригоди, шьонен, комедія, драма
Аніместудія: Studio Pierrot

Тривалість: 01год. 33хв. 54сек.

Режисер: Абе Норіюкі
Автор Оригіналу: Кубо Тайто
Сейю: Моріта Масаказу (Куросакі Ічіґо), Іто Кентаро (Абарай Ренджі), Паку Ромі (Хіцуґая Тошіро), Орікаса Фуміко (Кучікі Рукія, Кучікі Хісана), Хірано Ая (Хомура), Камія Хіроші (Шізуку), Ніші Рінтаро (Іба Тецузаемон), Окіаю Рьотаро (Кучікі Б'якуя), Накао Рюусей (Куроцучі Маюрі), Куґімія Ріе (Куроцучі Нему), Мочізукі Хісайо (Кусаджіші Ячіру), Ооцука Акіо (Кіораку Шунсуй), Хіяма Нобуюкі (Мадараме Ікаку), Мацутані Кая (Мацумото Ранґіку), Кавакамі Томоко (Сой Фон), Ішікава Хідео (Укітаке Джюушіро), Мікі Шінчіро (Урахара Кіске), Цукада Масаакі (Ямамото Ґенрюусай Шіґекуні), Тачікі Фуміхіко (Заракі Кенпачі), Юкіно Сацукі (Шіхоін Йоруічі) та інші.

Сюжет:
У дослідницькій лабораторії Куроцучі Маюрі стається катастрофа, а потім одна особа зникає з пам'яті усіх. Куросакі Ічіґо на деякий час також не пам'ятає цієї особи, завдяки силі, котру він отримав від неї, він згадує Кучікі Рукію. Надалі, щоб розплутати цю історію та допомогти усім згадати Рукію, він вирушає до Товариства Душ, але як виявляється, про нього там теж забули і ставляться як до порушника. Як наслідок, усі загони замість розслідування інциденту з лабораторією починають ганятися за порушником, підсвідомо розуміючи, що він є ключем для розгадки їхньої проблеми. Зустрівши Рукію, Ічіґо бачить її у супроводі двох незнайомців і замість теплого прийому він отримує від неї запитання "Хто ти?". Що ж сталося з усіма і хто винен у цьому?

© Arch_Enemy

Відео:
якість:
контейнер:
кодек:
частота кадрів: 23.976 кадрів/сек.
розмір кадру: 1920х1036 пікс.
бітрейт: ~3700 кбіт/сек.
бітність: 8 біт.

Аудіо # 1:
мова: українська, двоголосе закадрове озвучення.
кодек:
кількість каналів: 5.1
бітрейт: 1509 кбіт/сек.
частота: 48000 Гц

Аудіо # 2:
мова: японська, оригінал
кодек:
кількість каналів: 5.1
бітрейт: 1509 кбіт/сек.
частота: 48000 Гц
Джерело озвучення: AniUA

текст читали: Henessi та Maslinka
переклад: MadGuy
таймінг звуку: Kohinsan
робота зі звуком: Arch_Enemy

Джерело релізу: AniUA
Скріншоти
Скрінлист
MI
General
Unique ID : 218441199636041785663743479652883651938 (0xA4563EA7B81F4010A136082535785D62)
Complete name : D:\Anime\[AniUA]_BLEACH_[UKR]\[AniUA]_[Movie_03]_Gekijouban_Bleach_-_Fade_to_Black_Kimi_no_Na_o_Yobu_[2008]_[BDRip_x264_1920x1036_DTS]_[UKR_JAP]_[Hennessi_and_Maslinka].
Format :
Format version : Version 4 / Version 2
File size : 6.40 GiB
Duration : 1 h 33 min
Overall bit rate : 9 742 kb/s
Movie name : Gekijouban Bleach: Fade to Black Kimi no Na o Yobu
Encoded date : UTC 2017-07-01 22:08:16
Writing application : mkvmerge v11.0.0 ('Alive') 64bit
Writing library : libebml v1.3.4 + libmatroska v1.4.5

Video
ID : 1
Format : AVC
Format/Info : Advanced Video Codec
Format profile : [email protected]
Format settings, CABAC : Yes
Format settings, ReFrames : 16 frames
Codec ID : V_MPEG4/ISO/AVC
Duration : 1 h 33 min
Bit rate : 3 652 kb/s
Width : 1 920 pixels
Height : 1 036 pixels
Display aspect ratio : 1.85:1
Frame rate mode : Constant
Frame rate : 23.976 (24000/1001) FPS
Color space : YUV
Chroma subsampling : 4:2:0
Bit depth : 8 bits
Scan type : Progressive
Bits/(Pixel*Frame) : 0.077
Stream size : 2.40 GiB (37%)
Title : http://aniua.com/
Writing library : core 116 r2074 2641b9e
Encoding settings : cabac=1 / ref=16 / deblock=1:0:0 / analyse=0x3:0x133 / me=tesa / subme=11 / psy=1 / psy_rd=1.00:0.00 / mixed_ref=1 / me_range=24 / chroma_me=1 / trellis=2 / 8x8dct=1 / cqm=0 / deadzone=21,11 / fast_pskip=0 / chroma_qp_offset=-2 / threads=12 / sliced_threads=0 / nr=0 / decimate=1 / interlaced=0 / bluray_compat=0 / constrained_intra=0 / bframes=16 / b_pyramid=2 / b_adapt=2 / b_bias=0 / direct=3 / weightb=1 / open_gop=0 / weightp=2 / keyint=250 / keyint_min=23 / scenecut=40 / intra_refresh=0 / rc_lookahead=60 / rc=crf / mbtree=1 / crf=16.0 / qcomp=0.60 / qpmin=0 / qpmax=69 / qpstep=4 / ip_ratio=1.40 / aq=1:1.00
Language : Japanese
Default : Yes
Forced : Yes

Audio #1
ID : 2
Format :
Format/Info : Digital Theater Systems
Format profile : MA / Core
Mode : 16
Format settings, Endianness : Big
Codec ID : A_DTS
Duration : 1 h 33 min
Bit rate mode : Variable / Constant
Bit rate : 3 840 kb/s / 1 509 kb/s
Channel(s) : 6 channels
Channel positions : Front: L C R, Side: L R, LFE
Sampling rate : 48.0 kHz
Frame rate : 93.750 FPS (512 spf)
Bit depth : 24 bits
Compression mode : Lossless / Lossy
Stream size : 2.56 GiB (40%)
Title : Hennessi and Maslinka
Language : Ukrainian
Default : Yes
Forced : Yes

Audio #2
ID : 3
Format :
Format/Info : Digital Theater Systems
Format profile : MA / Core
Mode : 16
Format settings, Endianness : Big
Codec ID : A_DTS
Duration : 1 h 33 min
Bit rate mode : Variable / Constant
Bit rate : 2 193 kb/s / 1 509 kb/s
Channel(s) : 6 channels
Channel positions : Front: L C R, Side: L R, LFE
Sampling rate : 48.0 kHz
Frame rate : 93.750 FPS (512 spf)
Bit depth : 16 bits
Compression mode : Lossless / Lossy
Stream size : 1.44 GiB (23%)
Title : Original
Language : Japanese
Default : No
Forced : No


Авторський реліз (завантажувати можна без реєстрації)
 Трекер:    Зареєстрований   

Завантажити / скачати аніме українською



відео для новачків



 Зареєстрований:   2017-07-02 15:00
 Розмір:   6.4 GB 
 Оцінка аніме:   10/10 (Голосів: 5)
   
Ваш часовий пояс: GMT + 2 Години

Нова тема   Відповісти