Конг: Острів черепа / Kong: Skull Island (2017) 720p Ukr/Eng | Sub Eng (60 fps)

Нові коментарі

Нова тема   Відповісти
Автор Повідомлення
Drool 
VIP


З нами з: 17.04.10
Востаннє: 24.09.17
Повідомлень: 1396

2017-06-29 22:58  
Конг: Острів черепа / Kong: Skull Island (2017) 720p Ukr/Eng | Sub Eng (60 fps)

Жанр: фантастика, фентезі, бойовик, пригодницький
Країна: США


Діти до 13 років допускаються на фільм тільки з батьками
Настійне застереження батькам. Деякий матеріал може бути невідповідним для дітей до 13 років. Цей рейтинг показує, що оцінений фільм може бути невідповідним для дітей. Батьки повинні бути особливо обережні, дозволяючи своїм маленьким дітям перегляд. Грубе або тривале насильство відсутнє; сексуальна орієнтація на наготу відсутня; деякі сцени вживання наркотиків можуть бути присутніми; можна почути одиничні вживання грубої сексуальної лексики. Присутня епізодична оголеність (не враховуючи репродуктивні органи). Присутні сексуальні натяки і натяки на гомосексуалізм чи сексуальні збочення.
Кінокомпанія: Legendary Entertainment, Tencent Pictures, Warner Bros
Режисер: Джордан Вот-Робертс
Актори: Том Гіддлстон, Брі Ларсон, Семюел Л. Джексон, Джон Сі Рейллі, Джон Ґудмен, Корі Гоукінс, Джон Ортіц, Тянь Цзин, Тобі Кеббелл, Ші Вігхем та інші

Сюжет:
1971 рік. У Тихому океані знаходиться острів Черепа, де наука зустрічається з міфом. Колись саме там був знайдений славетний Кінг-Конг. Капітан Джеймс Конрад стоїть на чолі експедиції в пошуках зниклого брата і якоїсь дивної субстанції на цей таємничий острів. Але люди прийшли зі зброєю, а таким гостям ніхто не радий. Експедиція опиняється в джунглях, де вони зустрічають інших людей. Від їхнього лідера Марлоу вони дізнаються, що Кінг-Конг – не єдине і далеко не найнебезпечніше створіння на острові. Небезпека повсюди.


Тривалість: 01:58:23
Якість: 720p
Відео:
кодек:
розмір кадру: 1280 х 534
бітрейт: 6983 кб/с
crf: 17.0 [vbv_maxrate=14000]
кадрів на секунду: 60.000 к/с

Аудіо 1:
мова: українська
переклад: професійний дубльований
кодек: 2.0
бітрейт: 192 кб/с

Аудіо 2:
мова: англійська
переклад: оригінал
кодек: 5.1
бітрейт: 448 кб/с

Субтитри #1:
мова: українська (форсовані)
тип: програмні (м'які)
формат: *.srt

Субтитри #2:
мова: англійська (повні)
тип: програмні (м'які)
формат: *.srt
Info
Код:
General
Unique ID                                : 285363803942555819171269510019195321212 (0xD6AF11CB20816A94CDBF1105C237BB7C)
Complete name                            : /mnt/disk_d/Video/Kong.Skull.Island.2017.Ukr.Dub..720p.60fps.
Format                                   :
Format version                           : Version 4 / Version 2
File size                                : 6.43 GiB
Duration                                 : 1h 58mn
Overall bit rate                         : 7 778 Kbps
Movie name                               : Конг: Острів черепа / Kong: Skull Island (2017) 720p Ukr/Eng | Sub Eng [60 fps] | NNNB
Encoded date                             : UTC 2017-06-29 07:55:37
Writing application                      : mkvmerge v9.7.1 ('Pandemonium') 64bit
Writing library                          : libebml v1.3.4 + libmatroska v1.4.5
Attachements                             : cover
DURATION                                 : 01:54:22.946000000
NUMBER_OF_FRAMES                         : 974
NUMBER_OF_BYTES                          : 39911
_STATISTICS_WRITING_APP                  : mkvmerge v9.7.1 ('Pandemonium') 64bit
_STATISTICS_WRITING_DATE_UTC             : 2017-06-29 07:55:37
_STATISTICS_TAGS                         : BPS DURATION NUMBER_OF_FRAMES NUMBER_OF_BYTES

Video
ID                                       : 1
Format                                   : AVC
Format/Info                              : Advanced Video Codec
Format profile                           : [email protected]
Format settings, CABAC                   : Yes
Format settings, ReFrames                : 9 frames
Codec ID                                 : V_MPEG4/ISO/AVC
Duration                                 : 1h 58mn
Bit rate                                 : 6 983 Kbps
Width                                    : 1 280 pixels
Height                                   : 534 pixels
Display aspect ratio                     : 2.40:1
Frame rate mode                          : Constant
Frame rate                               : 60.000 fps
Color space                              : YUV
Chroma subsampling                       : 4:2:0
Bit depth                                : 8 bits
Scan type                                : Progressive
Bits/(Pixel*Frame)                       : 0.170
Stream size                              : 5.77 GiB (90%)
Title                                    : Конг: Острів черепа / Kong: Skull Island (2017) 720p Ukr/Eng | Sub Eng [60 fps] | NNNB
Writing library                          : core 146 r2538 121396c
Encoding settings                        : cabac=1 / ref=9 / deblock=1:0:0 / analyse=0x3:0x113 / me=umh / subme=11 / psy=1 / psy_rd=1.00:0.00 / mixed_ref=1 / me_range=24 / chroma_me=1 / trellis=2 / 8x8dct=1 / cqm=0 / deadzone=21,11 / fast_pskip=0 / chroma_qp_offset=-2 / threads=12 / lookahead_threads=1 / sliced_threads=0 / nr=0 / decimate=1 / interlaced=0 / bluray_compat=0 / constrained_intra=0 / bframes=5 / b_pyramid=2 / b_adapt=2 / b_bias=0 / direct=1 / weightb=1 / open_gop=0 / weightp=2 / keyint=250 / keyint_min=25 / scenecut=40 / intra_refresh=0 / rc_lookahead=40 / rc=crf / mbtree=0 / crf=17.0 / qcomp=0.60 / qpmin=0 / qpmax=69 / qpstep=4 / vbv_maxrate=14000 / vbv_bufsize=14000 / crf_max=0.0 / nal_hrd=none / filler=0 / ip_ratio=1.40 / pb_ratio=1.30 / aq=3:1.00
Default                                  : Yes
Forced                                   : Yes
DURATION                                 : 01:58:22.517000000
NUMBER_OF_FRAMES                         : 426151
NUMBER_OF_BYTES                          : 6333783055
_STATISTICS_WRITING_APP                  : mkvmerge v9.7.1 ('Pandemonium') 64bit
_STATISTICS_WRITING_DATE_UTC             : 2017-06-29 07:55:37
_STATISTICS_TAGS                         : BPS DURATION NUMBER_OF_FRAMES NUMBER_OF_BYTES

Audio #1
ID                                       : 2
Format                                   : AC-3
Format/Info                              : Audio Coding 3
Mode extension                           : CM (complete main)
Format settings, Endianness              : Big
Codec ID                                 : A_AC3
Duration                                 : 1h 58mn
Bit rate mode                            : Constant
Bit rate                                 : 192 Kbps
Channel(s)                               : 2 channels
Channel positions                        : Front: L R
Sampling rate                            : 48.0 KHz
Compression mode                         : Lossy
Stream size                              : 163 MiB (2%)
Title                                    : 2.0 @ 192 kbps
Language                                 : Ukrainian
Default                                  : Yes
Forced                                   : Yes

Audio #2
ID                                       : 3
Format                                   : AC-3
Format/Info                              : Audio Coding 3
Mode extension                           : CM (complete main)
Format settings, Endianness              : Big
Codec ID                                 : A_AC3
Duration                                 : 1h 58mn
Bit rate mode                            : Constant
Bit rate                                 : 448 Kbps
Channel(s)                               : 6 channels
Channel positions                        : Front: L C R, Side: L R, LFE
Sampling rate                            : 48.0 KHz
Compression mode                         : Lossy
Stream size                              : 379 MiB (6%)
Title                                    : 5.1 @ 448 kbps
Language                                 : English
Default                                  : No
Forced                                   : No

Text #1
ID                                       : 4
Format                                   : UTF-8
Codec ID                                 : S_TEXT/UTF8
Codec ID/Info                            : UTF-8 Plain Text
Title                                    : Forced
Language                                 : Ukrainian
Default                                  : Yes
Forced                                   : Yes

Text #2
ID                                       : 5
Format                                   : UTF-8
Codec ID                                 : S_TEXT/UTF8
Codec ID/Info                            : UTF-8 Plain Text
Title                                    : Full
Language                                 : English
Default                                  : No
Forced                                   : No

Menu
00:00:00.000                             : en:00:00:00.000
00:08:54.743                             : en:00:08:54.743
00:19:51.774                             : en:00:19:51.774
00:30:01.133                             : en:00:30:01.133
00:40:00.106                             : en:00:40:00.106
00:50:13.260                             : en:00:50:13.260
01:00:49.729                             : en:01:00:49.729
01:10:29.600                             : en:01:10:29.600
01:18:05.890                             : en:01:18:05.890
01:30:12.657                             : en:01:30:12.657
01:39:09.026                             : en:01:39:09.026
01:47:05.836                             : en:01:47:05.836
Скріншоти



Джерело відеоряду:
Особиста оцінка: 8 - мені сподобалося


 Трекер:    Зареєстрований   

Завантажити / скачати фільм українською



відео для новачків



 Зареєстрований:   2017-06-29 22:58
 Розмір:   6.43 GB 
 Оцінка фільму:   9.2/10 (Голосів: 20)
   
Ваш часовий пояс: GMT + 2 Години

Нова тема   Відповісти