День праці / Labor Day (2013) 1080p Ukr/Eng | sub Ukr/Eng/Fr/Spa/Rom

Нові коментарі

Нова тема   Відповісти
Автор Повідомлення
IronBee 
Свій


З нами з: 08.02.10
Востаннє: 22.08.17
Повідомлень: 61

2017-06-29 16:04  
День праці / Labor Day (2013) 1080p Ukr/Eng | sub Ukr/Eng/Fr/Spa/Rom

День праці / Labor Day (2013) 1080p Ukr/Eng | sub Ukr/Eng/Fr/Spa/Rom


Жанр: драма
Країна: США



Кінокомпанія: Indian Paintbrush, Mr. Mudd, Right of Way Films
Режисер: Джейсон Рейтман
Актори: Кейт Уінслет, Джош Бролін, Геттлін Гріффіт, Тобі Магуайр, Том Ліпінські, Майка Монро, Кларк Грегг, Джеймс Ван Дер Бик, Дж.К. Сіммонс, Брук Сміт

Сюжет:
Самотня мати приховує втікача вбивцю в своєму будинку, де живе разом з сином. Поліція обнишпорює все містечко в пошуках злочинця, а мати-одиначка, тим часом, дізнається про свого «гостя» гірку правду і перестає розуміти, що ж їй робити.


Тривалість: 01:51:13
Якість: 1080p
Відео:
кодек:
розмір кадру: 1920 х 800
бітрейт: 11.2 Mb/s

Аудіо # 1:
мова: українська (ІНТЕР)
переклад: багатоголосий закадровий
кодек: 2.0
бітрейт: 192кб/с

Аудіо # 2:
мова: англійська
переклад: оригінал
кодек: 5.1
бітрейт: 1509кб/с

Субтитри:
мова: українська
тип: програмні (м'які)
формат: *.srt

Субтитри:
мова: англійська (SDH)
тип: програмні (м'які)
формат: *.srt

Субтитри:
мова: французька
тип: програмні (м'які)
формат: *.srt

Субтитри:
мова: іспанська
тип: програмні (м'які)
формат: *.srt

Субтитри:
мова: румунська
тип: програмні (м'які)
формат: *.srt
Info
General
Unique ID : 239215420195855948244285491266720959270 (0xB3F736CEB24A07DFAE4F4E73C6310B26)
Complete name : E:\Films\Labor Day (2013) 1080p [Ukr.Eng] [sub Ukr.Eng] [Hurtom].
Format :
Format version : Version 4 / Version 2
File size : 10.1 GiB
Duration : 1 h 51 min
Overall bit rate : 12.9 Mb/s
Movie name : Labor Day (2013) - Release for HDCLUB
Encoded date : UTC 2017-06-29 11:43:13
Writing application : mkvmerge v13.0.0 ('The Juggler') 64bit
Writing library : libebml v1.3.4 + libmatroska v1.4.5

Video
ID : 1
Format : AVC
Format/Info : Advanced Video Codec
Format profile : [email protected]
Format settings, CABAC : Yes
Format settings, ReFrames : 5 frames
Codec ID : V_MPEG4/ISO/AVC
Duration : 1 h 51 min
Bit rate : 11.2 Mb/s
Width : 1 920 pixels
Height : 800 pixels
Display aspect ratio : 2.40:1
Frame rate mode : Constant
Frame rate : 23.976 (24000/1001) FPS
Color space : YUV
Chroma subsampling : 4:2:0
Bit depth : 8 bits
Scan type : Progressive
Bits/(Pixel*Frame) : 0.305
Stream size : 8.73 GiB (87%)
Writing library : core 142 r2431kMod ac76440
Encoding settings : cabac=1 / ref=5 / deblock=1:-3:-3 / analyse=0x3:0x133 / me=umh / subme=11 / psy=1 / fade_compensate=0.00 / psy_rd=0.95:0.00 / mixed_ref=1 / me_range=16 / chroma_me=1 / trellis=2 / 8x8dct=1 / cqm=0 / deadzone=21,11 / fast_pskip=0 / chroma_qp_offset=-2 / threads=6 / lookahead_threads=1 / sliced_threads=0 / nr=0 / decimate=0 / interlaced=0 / bluray_compat=0 / constrained_intra=0 / fgo=0 / bframes=11 / b_pyramid=2 / b_adapt=2 / b_bias=0 / direct=3 / weightb=1 / open_gop=0 / weightp=2 / keyint=250 / keyint_min=23 / scenecut=40 / intra_refresh=0 / rc=crf / mbtree=0 / crf=15.3000 / qcomp=0.60 / qpmin=0 / qpmax=69 / qpstep=4 / ip_ratio=1.40 / pb_ratio=1.30 / aq=3:0.85 / zones=153290,160007,crf=20
Language : English
Default : Yes
Forced : No

Audio #1
ID : 2
Format : AC-3
Format/Info : Audio Coding 3
Mode extension : CM (complete main)
Format settings, Endianness : Big
Codec ID : A_AC3
Duration : 1 h 51 min
Bit rate mode : Constant
Bit rate : 192 kb/s
Channel(s) : 2 channels
Channel positions : Front: L R
Sampling rate : 48.0 kHz
Frame rate : 31.250 FPS (1536 spf)
Bit depth : 16 bits
Compression mode : Lossy
Stream size : 153 MiB (1%)
Default : Yes
Forced : No

Audio #2
ID : 3
Format :
Format/Info : Digital Theater Systems
Mode : 16
Format settings, Endianness : Big
Codec ID : A_DTS
Duration : 1 h 51 min
Bit rate mode : Constant
Bit rate : 1 509 kb/s
Channel(s) : 6 channels
Channel positions : Front: L C R, Side: L R, LFE
Sampling rate : 48.0 kHz
Frame rate : 93.750 FPS (512 spf)
Bit depth : 24 bits
Compression mode : Lossy
Stream size : 1.17 GiB (12%)
Language : English
Default : No
Forced : No

Text #1
ID : 4
Format : UTF-8
Codec ID : S_TEXT/UTF8
Codec ID/Info : UTF-8 Plain Text
Duration : 1 h 48 min
Bit rate : 71 b/s
Count of elements : 1043
Stream size : 56.7 KiB (0%)
Language : Ukrainian
Default : No
Forced : No

Text #2
ID : 5
Format : UTF-8
Codec ID : S_TEXT/UTF8
Codec ID/Info : UTF-8 Plain Text
Duration : 1 h 43 min
Bit rate : 46 b/s
Count of elements : 1054
Stream size : 34.9 KiB (0%)
Language : English
Default : No
Forced : No

Text #3
ID : 6
Format : UTF-8
Codec ID : S_TEXT/UTF8
Codec ID/Info : UTF-8 Plain Text
Duration : 1 h 43 min
Bit rate : 49 b/s
Count of elements : 1137
Stream size : 37.7 KiB (0%)
Title : SDH
Language : English
Default : No
Forced : No

Text #4
ID : 7
Format : UTF-8
Codec ID : S_TEXT/UTF8
Codec ID/Info : UTF-8 Plain Text
Duration : 1 h 45 min
Bit rate : 32 b/s
Count of elements : 944
Stream size : 25.1 KiB (0%)
Language : French
Default : No
Forced : No

Text #5
ID : 8
Format : UTF-8
Codec ID : S_TEXT/UTF8
Codec ID/Info : UTF-8 Plain Text
Duration : 1 h 45 min
Bit rate : 31 b/s
Count of elements : 944
Stream size : 24.0 KiB (0%)
Language : Spanish
Default : No
Forced : No

Text #6
ID : 9
Format : UTF-8
Codec ID : S_TEXT/UTF8
Codec ID/Info : UTF-8 Plain Text
Duration : 1 h 50 min
Bit rate : 39 b/s
Count of elements : 1038
Stream size : 32.0 KiB (0%)
Language : Romanian
Default : No
Forced : No

Menu
00:00:00.000 : en:00:00:00.000
00:06:36.313 : en:00:06:36.313
00:12:46.641 : en:00:12:46.641
00:18:25.021 : en:00:18:25.021
00:25:39.163 : en:00:25:39.163
00:33:48.360 : en:00:33:48.360
00:41:06.214 : en:00:41:06.214
00:48:19.480 : en:00:48:19.480
00:57:00.459 : en:00:57:00.459
01:07:58.032 : en:01:07:58.032
01:13:12.346 : en:01:13:12.346
01:19:58.752 : en:01:19:58.752
01:22:27.943 : en:01:22:27.943
01:29:03.255 : en:01:29:03.255
01:33:53.253 : en:01:33:53.253
01:46:36.932 : en:01:46:36.932
Скріншоти





Джерело: &
Особиста оцінка: 10 - без зайвих вагань рекомендую всім!


 Трекер:    Зареєстрований   

Завантажити / скачати фільм українською



відео для новачків



 Зареєстрований:   2017-06-29 16:04
 Розмір:   10.06 GB 
 Оцінка фільму:   10/10 (Голосів: 5)
   
Інші релізи
   День праці / Labor Day (2013) AVC Ukr/Eng | sub Ukr/Eng AngryBirdsUA  11 / 0   1.98 GB   2015-11-05 23:23 
   День праці / Labor Day (2013) Ukr/Eng | Sub Ukr/Eng Gelios  5 / 0   1.45 GB   2015-11-05 23:22 
Ваш часовий пояс: GMT + 2 Години

Нова тема   Відповісти