Провина / Misconduct (2016) Remux 1080p Ukr/Eng | Sub Eng

Нові коментарі

Нова тема   Відповісти
Автор Повідомлення
IronBee 
Свій


З нами з: 08.02.10
Востаннє: 16.12.17
Повідомлень: 89

2017-06-29 10:33  
Провина / Misconduct (2016) Remux 1080p Ukr/Eng | Sub Eng

Провина / Misconduct (2016) Remux 1080p Ukr/Eng | Sub Eng


Жанр: драма, трилер
Країна: США



Кінокомпанія: Mike and Marty Productions
Режисер: Шінтаро Шімосава
Актори: Джош Дюамель, Ентоні Гопкінс, Аль Пачіно, Еліс Ів, Малін Акерман, Джулія Стайлз, Глен Пауелл, Кріс Маркетт, Бен Хон Лі, Скай П. Маршалл та інші

Сюжет:
Молодий юрист Бен Кейхілл тільки почав свою діяльність. Одного разу йому в руки потрапили секретні документи, які можуть допомогти вивести на чисту воду впливового і безжального виконавчого директора великої фармацевтичної компанії Артура Деннінга. Документи показали, що новий випробовуваний препарат не підлягає продажу, так як може стати причиною серйозних захворювань і навіть смерті людини. Розслідуючи цю справу, Бен опиняється втягнутим у світ шантажу та корупції. Раптово померла колишня дівчина юриста, яка і передала йому ті самі документи. В її смерті він підозрює Деннінга, і він це доведе.



Тривалість: 01:45:54
Якість: Remux
Відео:
кодек:
розмір кадру: 1920 х 1080
бітрейт: 18.0 Mb/s

Аудіо # 1:
мова: українська (MEGOGO.NET)
переклад: професійний дубльований
кодек: 2.0
бітрейт: 192кб/с

Аудіо # 2:
мова: англійська
переклад: оригінал
кодек: 5.1
бітрейт: 1509 кб/с

Субтитри:
мова: англійська
тип: програмні (м'які)
формат: *.srt
Info
General
Unique ID : 183442632118130462346016558699155523752 (0x8A01C40D42E6DD4CB699C8B5490388A8)
Complete name : E:\Films\Провина Misconduct (2016) Remux 1080p Ukr Eng Sub Eng.
Format :
Format version : Version 4 / Version 2
File size : 16.1 GiB
Duration : 1 h 45 min
Overall bit rate mode : Variable
Overall bit rate : 21.8 Mb/s
Movie name : Misconduct.2016.Remux.1080p
Encoded date : UTC 2017-06-29 07:19:59
Writing application : mkvmerge v13.0.0 ('The Juggler') 64bit
Writing library : libebml v1.3.4 + libmatroska v1.4.5

Video
ID : 1
Format : AVC
Format/Info : Advanced Video Codec
Format profile : [email protected]
Format settings, CABAC : Yes
Format settings, ReFrames : 4 frames
Codec ID : V_MPEG4/ISO/AVC
Duration : 1 h 45 min
Bit rate mode : Variable
Bit rate : 18.0 Mb/s
Maximum bit rate : 37.0 Mb/s
Width : 1 920 pixels
Height : 1 080 pixels
Display aspect ratio : 16:9
Frame rate mode : Constant
Frame rate : 23.976 (24000/1001) FPS
Color space : YUV
Chroma subsampling : 4:2:0
Bit depth : 8 bits
Scan type : Progressive
Bits/(Pixel*Frame) : 0.362
Stream size : 13.3 GiB (83%)
Language : English
Default : No
Forced : No

Audio #1
ID : 2
Format : AC-3
Format/Info : Audio Coding 3
Mode extension : CM (complete main)
Format settings, Endianness : Big
Codec ID : A_AC3
Duration : 1 h 45 min
Bit rate mode : Constant
Bit rate : 192 kb/s
Channel(s) : 2 channels
Channel positions : Front: L R
Sampling rate : 48.0 kHz
Frame rate : 31.250 FPS (1536 spf)
Bit depth : 16 bits
Compression mode : Lossy
Stream size : 145 MiB (1%)
Default : Yes
Forced : No

Audio #2
ID : 3
Format :
Format/Info : Digital Theater Systems
Format profile : MA / Core
Mode : 16
Format settings, Endianness : Big
Codec ID : A_DTS
Duration : 1 h 45 min
Bit rate mode : Variable / Constant
Bit rate : 3 588 kb/s / 1 509 kb/s
Channel(s) : 6 channels
Channel positions : Front: L C R, Side: L R, LFE
Sampling rate : 48.0 kHz
Frame rate : 93.750 FPS (512 spf)
Bit depth : 24 bits
Compression mode : Lossless / Lossy
Stream size : 2.65 GiB (16%)
Language : English
Default : No
Forced : No

Text
ID : 4
Format : UTF-8
Codec ID : S_TEXT/UTF8
Codec ID/Info : UTF-8 Plain Text
Duration : 1 h 40 min
Bit rate : 56 b/s
Count of elements : 1178
Stream size : 41.8 KiB (0%)
Language : English
Default : No
Forced : No

Menu
00:00:00.000 : en:Chapter 01
00:09:31.946 : en:Chapter 02
00:15:35.809 : en:Chapter 03
00:25:51.925 : en:Chapter 04
00:34:03.583 : en:Chapter 05
00:37:49.809 : en:Chapter 06
00:44:09.855 : en:Chapter 07
00:50:30.694 : en:Chapter 08
00:58:21.539 : en:Chapter 09
01:03:56.165 : en:Chapter 10
01:11:36.750 : en:Chapter 11
01:18:43.051 : en:Chapter 12
01:24:04.205 : en:Chapter 13
01:29:02.795 : en:Chapter 14
01:35:34.270 : en:Chapter 15
01:37:01.273 : en:Chapter 16
Скріншоти




Подяка пану Electroz за доріжку.

Джерело: &
Особиста оцінка: 0 - не дивився


Золотий реліз (завантажене не впливає на рейтинг)
 Трекер:    Зареєстрований   

Завантажити / скачати фільм українською



відео для новачків



 Зареєстрований:   2017-06-29 10:33
 Розмір:   16.11 GB 
 Оцінка фільму:   9/10 (Голосів: 8)
   
Інші релізи
   Провина / Misconduct (2016) AVC Ukr/Eng | Sub Eng 11FrYkT  37 / 0   1.59 GB   2017-05-30 17:31 
   Провина / Misconduct (2016) 720p Ukr/Eng | Sub Eng 11FrYkT  16 / 0   5.61 GB   2017-05-30 17:30 
   Провина / Misconduct (2016) Electroz  25 / 0   1.43 GB   2017-05-29 20:37 
Electroz 
Відео Гуртом - підтримка та поширення
Відео Гуртом - підтримка та поширення


З нами з: 18.09.14
Востаннє: 16.12.17
Повідомлень: 2020

2017-06-29 11:36  
Допишіть подяки.
Electroz 
Відео Гуртом - підтримка та поширення
Відео Гуртом - підтримка та поширення


З нами з: 18.09.14
Востаннє: 16.12.17
Повідомлень: 2020

2017-06-29 18:53  
IronBee написано:
переклад: багатоголосий закадровий

дубляж

Ваш часовий пояс: GMT + 2 Години

Нова тема   Відповісти