Ірландець / The Guard (2011) 1080p Ukr/Eng | Sub Eng

Нові коментарі

Нова тема   Відповісти
Автор Повідомлення
IronBee 
Свій


З нами з: 08.02.10
Востаннє: 22.10.17
Повідомлень: 72

2017-06-28 12:06  
Ірландець / The Guard (2011) 1080p Ukr/Eng | Sub Eng

Ірландець / The Guard (2011) 1080p Ukr/Eng | Sub Eng


Жанр: трилер, комедія, кримінал
Країна: Ірландія



Кінокомпанія: Crescendo Productions
Режисер: Джон Майкл МакДона
Актори: Брендан Глісон, Дон Чідл, Марк Стронг, Ліам Каннінгем, Фіоннула Фленаган, Девід Вілмот, Лоуренс Кінлан, Катаріна Кес, Домінік МакЕллігот, Гарі Лайдон

Сюжет:
Жінки, випивка і веселі жарти - ось радощі добродушного ірландського поліцейського, сержанта Джеррі Бойла. Він ніколи не подумував про геройство, поки одного разу в Дубліні не з'явився агент ФБР, який закликав невдалого служителя порядку допомогти йому накрити міжнародну банду наркоторговців. Чи зможуть спрацюватися веселий рудий ірландець і рішучий афроамериканець? Адже справа, за яку вони взялися, виявиться такою ж непередбачуваною, як і вони самі...


Тривалість: 01:35:49
Якість: 1080p
Відео:
кодек:
розмір кадру: 1920 х 816
бітрейт: 16.4 Mb/s

Аудіо # 1:
мова: українська
переклад: багатоголосий закадровий
кодек: 2.0
бітрейт: 192 кб/с

Аудіо # 2:
мова: англійська
переклад: оригінал
кодек: 5.1
бітрейт: 1509 кб/с

Аудіо # 3:
мова: англійська (Commentary with John Michael Mcdonagh, Don Cheadle & Brendan Gleeson)
переклад: оригінал
кодек: 2.0
бітрейт: 192 кб/с

Субтитри:
мова: англійська
тип: програмні (м'які)
формат: *.srt

Субтитри:
мова: англійська (Commentary with John Michael Mcdonagh, Don Cheadle & Brendan Gleeson)
тип: програмні (м'які)
формат: *.srt
Info
General
Unique ID : 193229379572503660017331677258495896182 (0x915E9FF48EC9120395C342921DDD2A76)
Complete name : E:\Films\The Guard (2011) 1080p [ukr,eng] sub.eng[Hurtom].
Format :
Format version : Version 4 / Version 2
File size : 12.2 GiB
Duration : 1 h 35 min
Overall bit rate : 18.3 Mb/s
Movie name : The Guard (2011) - Release for HDCLUB by HANSMER
Encoded date : UTC 2017-06-28 08:18:54
Writing application : mkvmerge v13.0.0 ('The Juggler') 64bit
Writing library : libebml v1.3.4 + libmatroska v1.4.5

Video
ID : 1
Format : AVC
Format/Info : Advanced Video Codec
Format profile : [email protected]
Format settings, CABAC : Yes
Format settings, ReFrames : 5 frames
Codec ID : V_MPEG4/ISO/AVC
Duration : 1 h 35 min
Bit rate : 16.4 Mb/s
Width : 1 920 pixels
Height : 816 pixels
Display aspect ratio : 2.35:1
Frame rate mode : Constant
Frame rate : 23.976 (24000/1001) FPS
Color space : YUV
Chroma subsampling : 4:2:0
Bit depth : 8 bits
Scan type : Progressive
Bits/(Pixel*Frame) : 0.437
Stream size : 11.0 GiB (90%)
Writing library : core 120 r2164 da19765
Encoding settings : cabac=1 / ref=5 / deblock=1:-3:-3 / analyse=0x3:0x133 / me=tesa / subme=10 / psy=1 / psy_rd=1.00:0.15 / mixed_ref=1 / me_range=24 / chroma_me=1 / trellis=2 / 8x8dct=1 / cqm=0 / deadzone=21,11 / fast_pskip=0 / chroma_qp_offset=-3 / threads=6 / sliced_threads=0 / nr=0 / decimate=0 / interlaced=0 / bluray_compat=0 / constrained_intra=0 / bframes=8 / b_pyramid=2 / b_adapt=2 / b_bias=0 / direct=3 / weightb=1 / open_gop=0 / weightp=2 / keyint=250 / keyint_min=23 / scenecut=40 / intra_refresh=0 / rc_lookahead=60 / rc=2pass / mbtree=1 / bitrate=16418 / ratetol=1.0 / qcomp=0.75 / qpmin=0 / qpmax=69 / qpstep=4 / cplxblur=20.0 / qblur=0.5 / vbv_maxrate=50000 / vbv_bufsize=62500 / nal_hrd=none / ip_ratio=1.40 / aq=1:0.75
Language : English
Default : Yes
Forced : No

Audio #1
ID : 2
Format : AC-3
Format/Info : Audio Coding 3
Mode extension : CM (complete main)
Format settings, Endianness : Big
Codec ID : A_AC3
Duration : 1 h 35 min
Bit rate mode : Constant
Bit rate : 192 kb/s
Channel(s) : 2 channels
Channel positions : Front: L R
Sampling rate : 48.0 kHz
Frame rate : 31.250 FPS (1536 spf)
Bit depth : 16 bits
Compression mode : Lossy
Stream size : 132 MiB (1%)
Default : Yes
Forced : No

Audio #2
ID : 3
Format :
Format/Info : Digital Theater Systems
Mode : 16
Format settings, Endianness : Big
Codec ID : A_DTS
Duration : 1 h 35 min
Bit rate mode : Constant
Bit rate : 1 509 kb/s
Channel(s) : 6 channels
Channel positions : Front: L C R, Side: L R, LFE
Sampling rate : 48.0 kHz
Frame rate : 93.750 FPS (512 spf)
Bit depth : 24 bits
Compression mode : Lossy
Delay relative to video : 11 ms
Stream size : 1.01 GiB (8%)
Title : 5.1 1536 kbps
Language : English
Default : No
Forced : No

Audio #3
ID : 4
Format : AC-3
Format/Info : Audio Coding 3
Mode extension : CM (complete main)
Format settings, Endianness : Big
Codec ID : A_AC3
Duration : 1 h 35 min
Bit rate mode : Constant
Bit rate : 192 kb/s
Channel(s) : 2 channels
Channel positions : Front: L R
Sampling rate : 48.0 kHz
Frame rate : 31.250 FPS (1536 spf)
Bit depth : 16 bits
Compression mode : Lossy
Stream size : 132 MiB (1%)
Title : 2.0 192 kbps Commentary with John Michael Mcdonagh, Don Cheadle & Brendan Gleeson
Language : English
Default : No
Forced : No

Text #1
ID : 5
Format : UTF-8
Codec ID : S_TEXT/UTF8
Codec ID/Info : UTF-8 Plain Text
Duration : 1 h 28 min
Bit rate : 68 b/s
Count of elements : 1206
Stream size : 44.1 KiB (0%)
Language : English
Default : No
Forced : No

Text #2
ID : 6
Format : UTF-8
Codec ID : S_TEXT/UTF8
Codec ID/Info : UTF-8 Plain Text
Duration : 1 h 31 min
Bit rate : 105 b/s
Count of elements : 1825
Stream size : 71.1 KiB (0%)
Title : Commentary with John Michael Mcdonagh, Don Cheadle & Brendan Gleeson
Language : English
Default : No
Forced : No

Menu
00:00:00.000 : :00:00:00.000
00:06:52.037 : :00:06:52.037
00:12:38.299 : :00:12:38.299
00:16:27.195 : :00:16:27.195
00:26:50.651 : :00:26:50.651
00:29:43.407 : :00:29:43.407
00:34:01.915 : :00:34:01.915
00:37:51.561 : :00:37:51.561
00:46:52.393 : :00:46:52.393
00:50:18.349 : :00:50:18.349
00:54:05.826 : :00:54:05.826
01:03:24.342 : :01:03:24.342
01:09:28.206 : :01:09:28.206
01:15:43.789 : :01:15:43.789
01:22:26.275 : :01:22:26.275
01:27:44.426 : :01:27:44.426
Скріншоти




Джерело: &
Особиста оцінка: 10 - без зайвих вагань рекомендую всім!


 Трекер:    Зареєстрований   

Завантажити / скачати фільм українською



відео для новачків



 Зареєстрований:   2017-06-28 12:06
 Розмір:   12.25 GB 
 Оцінка фільму:   9.9/10 (Голосів: 15)
   
Інші релізи
   Ірландець / The Guard (2011) 720p Ukr/Eng | Sub Eng 4erkov  10 / 0   5.04 GB   2012-09-07 06:49 
   Ірландець / The Guard (2011) Ukr/Eng | Sub Eng 4erkov  23 / 0   1.59 GB   2012-09-06 22:29 
kuts-vv 
Свій


З нами з: 11.12.11
Востаннє: 21.10.17
Повідомлень: 121

2017-07-01 12:42  
Прикольний фільм. Своєрідний англійський (ірландський) гумор...
pvm 
Поважний учасник


З нами з: 05.03.10
Востаннє: 22.10.17
Повідомлень: 164

2017-07-08 00:47  
Цікаво наскільки вдалий переклад
fatum69 
Новенький


З нами з: 10.12.16
Востаннє: 22.10.17
Повідомлень: 8

2017-09-12 14:02  
Чудовий фільм.
Непересічний коп проти системи Wide grin

kiboal 
Свій


З нами з: 25.12.14
Востаннє: 22.10.17
Повідомлень: 71

2017-10-17 21:15  
крутий фільм, і переклад бомба 12із10
Ваш часовий пояс: GMT + 2 Години

Нова тема   Відповісти