13 причин чому (Cезон 1, Серії 1-4) / 13 Reasons Why (Season 1, Episode 1-4) (2017) Eng | sub Ukr

Нові коментарі

Нова тема   Відповісти
Автор Повідомлення
pskrm 
Новенький


З нами з: 04.03.17
Востаннє: 16.08.17
Повідомлень: 11

2017-06-28 09:43  
13 причин чому (Cезон 1, Серії 1-4) / 13 Reasons Why (Season 1, Episodes 1-4) (2017) Eng | sub Ukr

13 причин чому (Cезон 1, Серії 1-4) / 13 Reasons Why (Season 1, Episode 1-4) (2017) Eng | sub Ukr


Жанр: драма, містика
Країна: США



Кінокомпанія: Netflix
Режисер: Том Мак-Карті
Актори: Катрін Ленґфорд, Ділан Міннет, Крістіан Наварро

Сюжет:
Одного разу Клей Дженсен знаходить на порозі свого будинку коробку з аудіокасетами, які записала Ханна Бейкер. Він був закоханий у цю дівчину в школі, поки одного разу вона не наклала на себе руки. У своїх записах Ханна вказала 13 причин, які штовхнули її на це. І Клей – одна з них.


Тривалість: 00:50:00
Перелік серій

01. Tape 1, Side A / Касета перша, сторона А
02. Tape 1, Side B / Касета перша, сторона B
03. Tape 2, Side A / Касета друга, сторона А
04. Tape 2, Side B / Касета друга, сторона B
Якість:
Відео:
кодек:
розмір кадру: 1280 x 720
бітрейт: 1408 кб/с

Аудіо:
мова: англійська
переклад: оригінал
кодек: 2.0
бітрейт: 170 кб/с

Субтитри:
мова: українська
тип: програмні (м'які)
формат: *.srt

Субтитри :власний переклад
Info

General
Complete name : /media/django/A4F1874E923E5014/ProSub/13ReasonsWhy/subbed/13ReasonsWhy/13ReasonsWhy.s01e01.mp4
Format : MPEG-4
Format profile : Base Media
Codec ID : isom (isom/iso2/avc1/mp41)
File size : 597 MiB
Duration : 52mn 38s
Overall bit rate mode : Variable
Overall bit rate : 1 585 Kbps
Movie name : 13.Reasons.Why.S01E01.720p..x265.ShAaNiG
Encoded date : UTC 1904-01-01 00:00:00
Tagged date : UTC 1904-01-01 00:00:00
Writing application : Lavf56.40.101

Video
ID : 1
Format : AVC
Format/Info : Advanced Video Codec
Format profile : [email protected]
Format settings, CABAC : Yes
Format settings, ReFrames : 4 frames
Codec ID : avc1
Codec ID/Info : Advanced Video Coding
Duration : 52mn 38s
Bit rate : 1 409 Kbps
Width : 1 280 pixels
Height : 720 pixels
Display aspect ratio : 16:9
Frame rate mode : Variable
Frame rate : 23.976 fps
Minimum frame rate : 23.810 fps
Maximum frame rate : 24.390 fps
Color space : YUV
Chroma subsampling : 4:2:0
Bit depth : 8 bits
Scan type : Progressive
Bits/(Pixel*Frame) : 0.064
Stream size : 530 MiB (89%)
Writing library : core 148 r2643 5c65704
Encoding settings : cabac=1 / ref=1 / deblock=1:0:0 / analyse=0x1:0x111 / me=hex / subme=2 / psy=1 / psy_rd=1,00:0,00 / mixed_ref=0 / me_range=16 / chroma_me=1 / trellis=0 / 8x8dct=0 / cqm=0 / deadzone=21,11 / fast_pskip=1 / chroma_qp_offset=0 / threads=3 / lookahead_threads=1 / sliced_threads=0 / nr=0 / decimate=1 / interlaced=0 / bluray_compat=0 / constrained_intra=0 / bframes=3 / b_pyramid=2 / b_adapt=1 / b_bias=0 / direct=1 / weightb=1 / open_gop=0 / weightp=1 / keyint=240 / keyint_min=24 / scenecut=40 / intra_refresh=0 / rc_lookahead=10 / rc=crf / mbtree=1 / crf=20,0 / qcomp=0,60 / qpmin=0 / qpmax=69 / qpstep=4 / vbv_maxrate=20000 / vbv_bufsize=25000 / crf_max=0,0 / nal_hrd=none / filler=0 / ip_ratio=1,40 / aq=1:1,00
Encoded date : UTC 1904-01-01 00:00:00
Tagged date : UTC 1904-01-01 00:00:00
Color range : Limited
Color primaries : BT.709
Transfer characteristics : BT.709
Matrix coefficients : BT.709

Audio
ID : 2
Format :
Format/Info : Advanced Audio Codec
Format profile : LC
Codec ID : 40
Duration : 52mn 38s
Duration_LastFrame : 21ms
Bit rate mode : Constant
Bit rate : 170 Kbps
Channel(s) : 2 channels
Channel positions : Front: L R
Sampling rate : 48.0 KHz
Frame rate : 46.875 fps (1024 spf)
Compression mode : Lossy
Stream size : 64.1 MiB (11%)
Language : English
Default : Yes
Alternate group : 1
Encoded date : UTC 1904-01-01 00:00:00
Tagged date : UTC 1904-01-01 00:00:00

Text
ID : 3
Format : Timed Text
Muxing mode : sbtl
Codec ID : tx3g
Duration : 52mn 38s
Bit rate mode : Variable
Bit rate : 99 bps
Stream size : 38.0 KiB (0%)
Language : Ukrainian
Default : Yes
Forced : No
Alternate group : 3
Encoded date : UTC 1904-01-01 00:00:00
Tagged date : UTC 1904-01-01 00:00:00
Скріншоти


Джерело:
Особиста оцінка: 8 - мені сподобалося


Авторський реліз (завантажувати можна без реєстрації)
 Трекер:    Зареєстрований   

Завантажити / скачати серіал українською



відео для новачків



 Зареєстрований:   2017-08-14 08:13
 Розмір:   2.36 GB 
 Оцінка серіалу:   9/10 (Голосів: 11)
   
OL3X 
VIP


З нами з: 25.11.15
Востаннє: 17.08.17
Повідомлень: 404

2017-06-28 11:57  
Чудовий серіал.
[Captain] 
VIP


З нами з: 19.02.12
Востаннє: 17.08.17
Повідомлень: 1724

2017-06-28 13:31  
OL3X, ви ще не всі серіали на сайті подивилися? раджу почати жити справжнім життям.
leicheman 
Відео Гуртом - підтримка та поширення
Відео Гуртом - підтримка та поширення


З нами з: 03.07.14
Востаннє: 17.08.17
Повідомлень: 1044

2017-06-28 14:53  
[Captain]
Чому ви йому кажете , що робити? Що по - вашому справжнє життя ?
Ось я наприклад встигаю дивитися купу серіалів, читати книжки, погуляти з дівчиною і друзями, на роботу сходити і в домі на городі попрацювати.
Якщо людина дивиться багато серіалів то це не значить, що вона не "живе справжнім життям".

don pedro 
Попереджень: 1
Попереджень: 1 


З нами з: 29.06.11
Востаннє: 17.08.17
Повідомлень: 10033

2017-06-28 18:00  
[Captain]
О, яка "цінна" порада. І що таке "справжнє життя"?

[Captain] 
VIP


З нами з: 19.02.12
Востаннє: 17.08.17
Повідомлень: 1724

2017-06-29 11:42  
та ви самі знаєте. суть у тому що в мережі можна писати що завгодно, і ніхто не знає хто ти. я ж можу навіть по-справжньому знати OL3X. ну тобто в реальному житті, гиги.
OL3X 
VIP


З нами з: 25.11.15
Востаннє: 17.08.17
Повідомлень: 404

2017-07-02 14:09  
Мені здається, світ потребує кінематографа так, як важкопоранений потребує знеболюючого.
© Вім Вендерс

_hellisa 
Свій


З нами з: 26.02.17
Востаннє: 17.08.17
Повідомлень: 52

2017-07-07 07:41  
Додано 2-гу серію!

Приємного перегляду.

_hellisa 
Свій


З нами з: 26.02.17
Востаннє: 17.08.17
Повідомлень: 52

2017-08-02 08:43  
Реліз оновлено!

Додано 3-тю серію!

leicheman 
Відео Гуртом - підтримка та поширення
Відео Гуртом - підтримка та поширення


З нами з: 03.07.14
Востаннє: 17.08.17
Повідомлень: 1044

2017-08-02 08:49  
Чому ви в своїх релізах берете 720 такої поганої якості ?
Додайте у опис 720р бо у вас просто ВебРіп

vsenkiv 
Новенький


З нами з: 09.10.15
Востаннє: 11.08.17
Повідомлень: 8

2017-08-02 14:00  
Плануєтся HD 1080 ?
_hellisa 
Свій


З нами з: 26.02.17
Востаннє: 17.08.17
Повідомлень: 52

2017-08-14 08:22  
Реліз оновлено!

Додано 4-ту серію.

Приємного перегляду!

Додано через 42 секунди:

vsenkiv
ні

Ваш часовий пояс: GMT + 2 Години

Нова тема   Відповісти