Трикутник / Triangle (2009) 1080p 2xUkr/Eng | sub Ukr/Eng

Нові коментарі

Нова тема   Відповісти
Автор Повідомлення
IronBee 
Свій


З нами з: 08.02.10
Востаннє: 21.10.17
Повідомлень: 72

2017-06-27 21:29  
Трикутник / Triangle (2009) 1080p 2xUkr/Eng | sub Ukr/Eng

Трикутник / Triangle (2009) 1080p 2xUkr/Eng | sub Ukr/Eng


Жанр: трилер, містика, жахи
Країна: Великобританія, Австралія



Кінокомпанія: Icon Entertainment International, Framestore, UK Film Council
Режисер: Крістофер Сміт / Christopher Smith
Актори: Меліса Джордж / Melissa George, Майкл Дорман / Michael Dorman, Генрі Ніксон / Henry Nixon, Рейчал Карпані / Rachael Carpani, Емма Ланґ / Emma Lung та інші

Сюжет:
Грег запрошує свою подругу Джесс, молоду матір-одиначку, провести день на яхті у колі своїх друзів. Сильний шторм перевертає судно, і ті, хто залишилися в живих, змушені чекати на допомогу, чіпляючись за перегорнутий корпус яхти. Порятунок приходить у вигляді величезного океанічного лайнера. Судно виявляється порожнім, годинник на борту зупинився. Але вони не єдині на цьому величезному кораблі - за ними хтось невпинно стежить...


Тривалість: 01:38:52
Якість: 1080p
Відео:
кодек:
розмір кадру: 1920 х 812
бітрейт: 15.4 Mb/s

Аудіо # 1: Джерело озвучення:
мова: українська
переклад: багатоголосий закадровий
кодек: 2.0
бітрейт: 192 кб/с

Аудіо # 2: Джерело озвучення:
мова: українська
переклад: багатоголосий закадровий
кодек: 2.0
бітрейт: 192 кб/с

Аудіо # 3:
мова: англійська
переклад: оригінал
кодек: 5.1
бітрейт: 1509 кб/с

Аудіо # 4:
мова: англійська (коментарі творця фільму)
переклад: оригінал
кодек: OGG 2.0
бітрейт: 80 кб/с

Субтитри:
мова: українська
переклад: ninenine
тип: програмні (м'які)
формат: *.srt

Субтитри:
мова: англійська
тип: програмні (м'які)
формат: *.srt
Info
General
Unique ID : 240050036378448756681545361540067555623 (0xB497F48FEEF5D1D382CB09596F66F927)
Complete name : E:\Films\Triangle.2009.BDRip1080p 2ukr,eng sub. ukr eng [Hurtom].
Format :
Format version : Version 4 / Version 2
File size : 12.0 GiB
Duration : 1 h 38 min
Overall bit rate mode : Variable
Overall bit rate : 17.4 Mb/s
Movie name : Triangle (2009)
Encoded date : UTC 2017-06-27 16:02:08
Writing application : mkvmerge v13.0.0 ('The Juggler') 64bit
Writing library : libebml v1.3.4 + libmatroska v1.4.5
Attachments : CronosPro-Bold.ttf / CronosPro-Semibold.ttf / CronosPro-SemiboldIt.ttf

Video
ID : 1
Format : AVC
Format/Info : Advanced Video Codec
Format profile : [email protected]
Format settings, CABAC : Yes
Format settings, ReFrames : 5 frames
Codec ID : V_MPEG4/ISO/AVC
Duration : 1 h 38 min
Bit rate : 15.4 Mb/s
Width : 1 920 pixels
Height : 812 pixels
Display aspect ratio : 2.35:1
Frame rate mode : Constant
Frame rate : 24.000 FPS
Color space : YUV
Chroma subsampling : 4:2:0
Bit depth : 8 bits
Scan type : Progressive
Bits/(Pixel*Frame) : 0.412
Stream size : 10.6 GiB (89%)
Writing library : core 94 r1564 a927654
Encoding settings : cabac=1 / ref=5 / deblock=1:-3:-3 / analyse=0x3:0x133 / me=umh / subme=9 / psy=1 / psy_rd=1.10:0.00 / mixed_ref=1 / me_range=32 / chroma_me=1 / trellis=2 / 8x8dct=1 / cqm=0 / deadzone=21,11 / fast_pskip=0 / chroma_qp_offset=-2 / threads=12 / sliced_threads=0 / nr=0 / decimate=0 / interlaced=0 / constrained_intra=0 / bframes=5 / b_pyramid=2 / b_adapt=2 / b_bias=0 / direct=3 / wpredb=1 / wpredp=2 / keyint=250 / keyint_min=25 / scenecut=40 / intra_refresh=0 / rc_lookahead=64 / rc=2pass / mbtree=1 / bitrate=15400 / ratetol=1.0 / qcomp=0.60 / qpmin=10 / qpmax=51 / qpstep=4 / cplxblur=20.0 / qblur=0.5 / vbv_maxrate=50000 / vbv_bufsize=50000 / ip_ratio=1.40 / aq=1:1.00 / nal_hrd=none
Language : English
Default : No
Forced : No

Audio #1
ID : 2
Format : AC-3
Format/Info : Audio Coding 3
Mode extension : CM (complete main)
Format settings, Endianness : Big
Codec ID : A_AC3
Duration : 1 h 38 min
Bit rate mode : Constant
Bit rate : 192 kb/s
Channel(s) : 2 channels
Channel positions : Front: L R
Sampling rate : 48.0 kHz
Frame rate : 31.250 FPS (1536 spf)
Bit depth : 16 bits
Compression mode : Lossy
Stream size : 136 MiB (1%)
Default : Yes
Forced : No

Audio #2
ID : 3
Format : AC-3
Format/Info : Audio Coding 3
Mode extension : CM (complete main)
Format settings, Endianness : Big
Codec ID : A_AC3
Duration : 1 h 38 min
Bit rate mode : Constant
Bit rate : 192 kb/s
Channel(s) : 2 channels
Channel positions : Front: L R
Sampling rate : 48.0 kHz
Frame rate : 31.250 FPS (1536 spf)
Bit depth : 16 bits
Compression mode : Lossy
Stream size : 136 MiB (1%)
Default : No
Forced : No

Audio #3
ID : 4
Format :
Format/Info : Digital Theater Systems
Mode : 16
Format settings, Endianness : Big
Codec ID : A_DTS
Duration : 1 h 38 min
Bit rate mode : Constant
Bit rate : 1 509 kb/s
Channel(s) : 6 channels
Channel positions : Front: L C R, Side: L R, LFE
Sampling rate : 48.0 kHz
Frame rate : 93.750 FPS (512 spf)
Bit depth : 24 bits
Compression mode : Lossy
Stream size : 1.04 GiB (9%)
Title : 5.1 1536 Kbps
Language : English
Default : No
Forced : No

Audio #4
ID : 5
Format : Vorbis
Format settings, Floor : 1
Codec ID : A_VORBIS
Duration : 1 h 38 min
Bit rate mode : Variable
Bit rate : 80.0 kb/s
Channel(s) : 2 channels
Sampling rate : 48.0 kHz
Frame rate : 58.378 FPS (822 spf)
Compression mode : Lossy
Stream size : 49.4 MiB (0%)
Writing library : libVorbis 1.1.1/1.1.2 (UTC 2005-03-04)
Default : No
Forced : No

Text #1
ID : 6
Format : UTF-8
Codec ID : S_TEXT/UTF8
Codec ID/Info : UTF-8 Plain Text
Duration : 1 h 33 min
Bit rate : 64 b/s
Count of elements : 780
Stream size : 43.7 KiB (0%)
Default : Yes
Forced : No

Text #2
ID : 7
Format : UTF-8
Codec ID : S_TEXT/UTF8
Codec ID/Info : UTF-8 Plain Text
Duration : 1 h 33 min
Bit rate : 35 b/s
Count of elements : 898
Stream size : 24.1 KiB (0%)
Default : No
Forced : No

Menu
00:00:00.000 : en:Chapter 1
00:08:41.457 : en:Chapter 2
00:19:36.040 : en:Chapter 3
00:27:10.500 : en:Chapter 4
00:33:28.208 : en:Chapter 5
00:38:16.791 : en:Chapter 6
00:43:46.375 : en:Chapter 7
00:50:34.458 : en:Chapter 8
00:58:57.666 : en:Chapter 9
01:01:51.083 : en:Chapter 10
01:09:19.375 : en:Chapter 11
01:19:43.666 : en:Chapter 12
01:26:37.791 : en:Chapter 13
01:29:16.707 : en:Chapter 14
01:31:11.582 : en:Chapter 15
01:34:19.375 : en:Chapter 16
Скріншоти



Джерело: &
Особиста оцінка: 9 - давно не бачив настільки якісне кіно


 Трекер:    Зареєстрований   

Завантажити / скачати фільм українською



відео для новачків



 Зареєстрований:   2017-06-27 21:29
 Розмір:   11.98 GB 
 Оцінка фільму:   8.2/10 (Голосів: 10)
   
Інші релізи
   Трикутник / Triangle (2009) [MP4, 640x] apvAltisimo  0 / 0   659 MB   2016-12-27 19:27 
   Трикутник / Triangle (2009) AVC 2xUkr/Eng | sub Ukr/Eng krigg070  13 / 0   2.19 GB   2016-12-20 14:46 
   Трикутник / Triangle (2009) 720p Ukr/Eng | sub Ukr/Eng ninenine  5 / 1   5.69 GB   2013-10-27 11:08 
   Трикутник / Triangle (2009) patriot2305  5 / 0   1.38 GB   2013-10-26 18:15 
lastbreath 
Новенький


З нами з: 02.12.15
Востаннє: 21.10.17
Повідомлень: 15

2017-06-28 02:30  
дуже класний фільм!
Vitaliy_pinkevich 
Новенький


З нами з: 03.06.16
Востаннє: 20.10.17
Повідомлень: 3

2017-06-30 18:12  
Задум гарний, але нажаль не до кінця продуманий
hetzendorf 
Відео Гуртом - підтримка та поширення
Відео Гуртом - підтримка та поширення


З нами з: 23.07.15
Востаннє: 21.10.17
Повідомлень: 496

2017-07-09 01:19  
Непогано, непогано! Сюжет один з класичних — часова петля. І неодмінно з класичною у таких випадках нестиковкою:
Звідки й як з'явилася 3-я Джесс на дорозі? Те, що їх має бути 3, як і на судні, цілком логічно. І для чого вона там — ще більше зрозуміло. Але ж звідки?
9/10

11994455 
Частий відвідувач


З нами з: 07.04.14
Востаннє: 19.10.17
Повідомлень: 49

2017-07-12 19:11  
Логічний фільм - хто не зрозумів - https://www.youtube.com/watch?v=uWZfHfQokMA
Автору релізу треба це скинути і залити сюди...

Ваш часовий пояс: GMT + 2 Години

Нова тема   Відповісти