Становлення сучасної Британії з Ендрю Марром (Сезон 1) / Andrew Marrs The Making Of Modern Britain (Season 1) (2009) 720p Ukr/Eng | Sub Ukr/Eng

Нові коментарі

Нова тема   Відповісти
Автор Повідомлення
Omikron 
VIP


З нами з: 03.01.12
Востаннє: 09.08.17
Повідомлень: 313

2017-06-25 19:54  
Становлення сучасної Британії з Ендрю Марром (Сезон 1) / Andrew Marrs The Making Of Modern Britain (Season 1) (2009) 720p Ukr/Eng | Sub Ukr/Eng

Становлення сучасної Британії з Ендрю Марром (Сезон 1) / Andrew Marrs The Making Of Modern Britain (Season 1) (2009) 720p Ukr/Eng | Sub Ukr/Eng


Жанр: документальний
Країна: Велика Британія



Кінокомпанія: BBC
Режисер: Робін Дешвуд / Robin Dashwood (1,3); Фатіма Саларія / Fatima Salaria (2,4); Френсіс Вотлі / Francis Whately (5), Роджер Персонс / Roger Parsons (6)
У фільмі знімались: Ендрю Марр / Andrew Marr

Сюжет:
Документальний фільм про історію становлення сучасної Британії починаючи з часів смерті королеви Вікторії по кінець другої світової війни.


Українською мовою озвучено студією Омікрон спеціально для HURTOM.COM


Тривалість: 1 серія: ~59:00 (цілком серій: 6)
Перелік серій:
1. Новий світанок
2. Шлях до війни
3. Велика війна
4. Свято життя
5. Маленька Британія
6. Британія дає відсіч
Якість: 720p
Відео:
кодек:
розмір кадру: 1280x720
бітрейт: ~2400 кб/с

Аудіо # 1:
мова: українська | Омікрон
переклад: одноголосий закадровий
кодек: 2.0
бітрейт: 224 кб/с

Аудіо # 2:
мова: англійська
переклад: оригінал
кодек: AAС 2.0
бітрейт: 192 кб/с

Субтитри # 1:
мова: українська
тип: програмні (м'які)
формат: *.srt

Субтитри # 2:
мова: англійська
тип: програмні (м'які)
формат: *.srt

Скріншоти








Звіт Info

Format :
Format version : Version 4 / Version 2
File size : 1.14 GiB
Duration : 57 min
Overall bit rate mode : Variable
Overall bit rate : 2 820 kb/s
Encoded date : UTC 2017-06-21 17:12:22
Writing application : mkvmerge v9.9.0 ('Pick Up') 64bit
Writing library : libebml v1.3.4 + libmatroska v1.4.5

Video
ID : 1
Format : AVC
Format/Info : Advanced Video Codec
Format profile : [email protected]
Format settings, CABAC : No
Format settings, ReFrames : 4 frames
Codec ID : V_MPEG4/ISO/AVC
Duration : 57 min
Bit rate mode : Variable
Bit rate : 2 404 kb/s
Maximum bit rate : 3 700 kb/s
Width : 1 280 pixels
Height : 720 pixels
Display aspect ratio : 16:9
Frame rate mode : Constant
Frame rate : 25.000 FPS
Standard : PAL
Color space : YUV
Chroma subsampling : 4:2:0
Bit depth : 8 bits
Scan type : Progressive
Bits/(Pixel*Frame) : 0.104
Stream size : 992 MiB (85%)
Language : English
Default : Yes
Forced : No
Color range : Limited
Color primaries : BT.709
Transfer characteristics : BT.709
Matrix coefficients : BT.709

Audio #1
ID : 2
Format : AC-3
Format/Info : Audio Coding 3
Mode extension : CM (complete main)
Format settings, Endianness : Big
Codec ID : A_AC3
Duration : 57 min
Bit rate mode : Constant
Bit rate : 224 kb/s
Channel(s) : 2 channels
Channel positions : Front: L R
Sampling rate : 48.0 kHz
Frame rate : 31.250 FPS (1536 spf)
Compression mode : Lossy
Stream size : 92.4 MiB (8%)
Title : VO Omikron studio for hurtom.com
Language : Ukrainian
Default : Yes
Forced : No

Audio #2
ID : 3
Format :
Format/Info : Advanced Audio Codec
Format profile : LC
Codec ID : A_AAC
Duration : 57 min
Bit rate : 192 kb/s
Channel(s) : 2 channels
Channel positions : Front: L R
Sampling rate : 48.0 kHz
Frame rate : 46.875 FPS (1024 spf)
Compression mode : Lossy
Stream size : 78.2 MiB (7%)
Language : English
Default : No
Forced : No

Text #1
ID : 4
Format : UTF-8
Codec ID : S_TEXT/UTF8
Codec ID/Info : UTF-8 Plain Text
Duration : 56 min
Bit rate : 130 b/s
Count of elements : 759
Stream size : 54.5 KiB (0%)
Language : Ukrainian
Default : No
Forced : No

Text #2
ID : 5
Format : UTF-8
Codec ID : S_TEXT/UTF8
Codec ID/Info : UTF-8 Plain Text
Duration : 57 min
Bit rate : 81 b/s
Count of elements : 779
Stream size : 34.0 KiB (0%)
Language : English
Default : No
Forced : No


Авторський реліз (завантажувати можна без реєстрації)
 Трекер:    Зареєстрований   

Завантажити / скачати фільм українською



відео для новачків



 Зареєстрований:   2017-07-07 20:54
 Розмір:   7.33 GB 
 Оцінка фільму:   10/10 (Голосів: 1)
   
Omikron 
VIP


З нами з: 03.01.12
Востаннє: 09.08.17
Повідомлень: 313

2017-07-07 20:56  
Торент перезалито. Додано 5ту та 6ту серії.
Ваш часовий пояс: GMT + 2 Години

Нова тема   Відповісти