Покемон (фільм 1): М'юдва завдає удар у відповідь / Pokemon (Movie 1): Mewtwo Strikes Back (1999) 720p

Нові коментарі

Нова тема   Відповісти
Автор Повідомлення
leshaloh 
Свій


З нами з: 08.03.11
Востаннє: 22.08.17
Повідомлень: 57

2017-06-24 22:51  
Покемон (фільм 1): М'юдва завдає удар у відповідь / Pokemon (Movie 1): Mewtwo Strikes Back (1999) 720p

Покемон (фільм 1): М'юдва завдає удар у відповідь / Pokemon (Movie 1): Mewtwo Strikes Back (1999) 720p


Жанр: пригоди, комедія, фентезі
Країна: Японія/США

Кінокомпанія: OLM
Режисер: Куніхіко Юяма
Сюжет:
Джіованні, лідер команди Ракета, має амбіційні плани по захопленню світу за допомогою свого останнього експерименту, могутнього клона М'ю - М'юту. М'юту надзвичайно сильний, а також достатньо розумний для того, щоб не бажати перебувати під керівництвом Джіованні. Він тікає з лабораторії, і невдовзі фабрикує власну схему, таємно запрошуючи певну кількість тренерів покемонів на вирішальне випробування. Звісно, якщо це подія для талановитиї тренерів, Еш Кетчум неодмінно буде в перших рядках. Захоплення Еша перетворюється на жах та злість, коли М'юту викриває свій план з панування, створюючи сильних клонів покемонів кожного тренера, вирівнюючи "дисбаланс" між покемонами та їх тренерами. Незважаючи на протести Еша, М'юту відмовляється вірити, що покемони та люди можуть бути друзями. Але стикаючись із рішучістю молодого тренера та любов'ю його покемонів, М'юту може змінити власні погляди, особливо передставши перед силою загадкового М'ю!


Тривалість: 67 хвилин

Коментар: Звук на знайденій касеті час від часу нагадує ефект зім'ятої плівки, тож було прийнято рішення зміксувати запис із оригінальною стереодоріжкою. До того ж, людина, яка записувала, трохи не встигла на початок, тож доріжці бракує перших двох хвилин перекладу. Буду дуже вдячний за знаходження втраченого фрагменту та/або запису кращої якості.
Як завжди, перекладено американську версію. Відеоряд так званої "remastered-версії"; HD-ріп знято з телеканалу Cartoon Network, які деінде позрізали декілька фрагментів приблизно на дві хвилини сумарної довжини, не враховуючи ендінгу. Переклад імені "М'юдва" мене дико не влаштовує, але назву вирішив залишити такою, якою її оголосив канал.

Якість:
Відео:
кодек:
розмір кадру: 1280 х 688
бітрейт: 2435 кб/с

Аудіо:
мова: українська
переклад: двоголосий закадровий
кодек: MP3
бітрейт: 128 кб/с

Джерело озвучення:
Так Треба Продакшн на замовлення
Info
General
Unique ID : 230278593960003192788446443337658339993 (0xAD3E0B4159556142A338F74904471299)
Complete name : D:\Zuk\Video\POKEMON\1 ORIGINAL\MOVIES\1 Mewtwo Strikes Back\Покемон, фільм 1. М'юдва завдає удар у відповідь (HDTV 720p).
Format :
Format version : Version 4 / Version 2
File size : 1.19 GiB
Duration : 1 h 6 min
Overall bit rate : 2 564 kb/s
Encoded date : UTC 2017-06-24 19:44:51
Writing application : mkvmerge v9.5.0 ('Quiet Fire') 64bit
Writing library : libebml v1.3.4 + libmatroska v1.4.5

Video
ID : 1
Format : AVC
Format/Info : Advanced Video Codec
Format profile : [email protected]
Format settings, CABAC : Yes
Format settings, ReFrames : 9 frames
Codec ID : V_MPEG4/ISO/AVC
Duration : 1 h 6 min
Bit rate : 2 435 kb/s
Width : 1 280 pixels
Height : 688 pixels
Display aspect ratio : 1.85:1
Frame rate mode : Variable
Frame rate : 23.976 FPS
Color space : YUV
Chroma subsampling : 4:2:0
Bit depth : 8 bits
Scan type : Progressive
Bits/(Pixel*Frame) : 0.115
Stream size : 1.13 GiB (95%)
Writing library : core 140 r2377 1ca7bb9
Encoding settings : cabac=1 / ref=9 / deblock=1:1:1 / analyse=0x3:0x113 / me=umh / subme=8 / psy=1 / psy_rd=0.40:0.00 / mixed_ref=1 / me_range=16 / chroma_me=1 / trellis=1 / 8x8dct=1 / cqm=0 / deadzone=21,11 / fast_pskip=1 / chroma_qp_offset=-2 / threads=12 / lookahead_threads=3 / sliced_threads=0 / nr=0 / decimate=1 / interlaced=0 / bluray_compat=0 / constrained_intra=0 / bframes=5 / b_pyramid=2 / b_adapt=2 / b_bias=0 / direct=3 / weightb=1 / open_gop=0 / weightp=2 / keyint=240 / keyint_min=24 / scenecut=40 / intra_refresh=0 / rc_lookahead=50 / rc=crf / mbtree=1 / crf=16.0 / qcomp=0.60 / qpmin=0 / qpmax=69 / qpstep=4 / vbv_maxrate=62500 / vbv_bufsize=78125 / crf_max=0.0 / nal_hrd=none / filler=0 / ip_ratio=1.40 / aq=1:0.60
Default : Yes
Forced : No
Color range : Limited
Color primaries : BT.709
Transfer characteristics : BT.709
Matrix coefficients : BT.709

Audio
ID : 2
Format : MPEG Audio
Format version : Version 1
Format profile : Layer 3
Codec ID : A_MPEG/L3
Codec ID/Hint : MP3
Duration : 1 h 6 min
Bit rate mode : Constant
Bit rate : 128 kb/s
Channel(s) : 2 channels
Sampling rate : 48.0 kHz
Frame rate : 41.667 FPS (1152 spf)
Compression mode : Lossy
Delay relative to video : -117 ms
Stream size : 61.0 MiB (5%)
Default : Yes
Forced : No
Скріншоти


Особиста оцінка: 10 - без зайвих вагань рекомендую всім!


Срібний реліз (на рейтинг впливає 50% завантаженого)
 Трекер:    Зареєстрований   

Завантажити / скачати аніме українською



відео для новачків



 Зареєстрований:   2017-06-24 22:51
 Розмір:   1.19 GB 
 Оцінка аніме:   10/10 (Голосів: 4)
   
Ваш часовий пояс: GMT + 2 Години

Нова тема   Відповісти