Король Артур: Легенда меча / King Arthur: Legend of the Sword (2017) 720p Ukr/Eng | Sub Kor/Eng

Нові коментарі

Нова тема   Відповісти
Автор Повідомлення
Anonymous 







2017-06-24 19:39  
Король Артур: Легенда меча / King Arthur: Legend of the Sword (2017) 720p Ukr/Eng | Sub Kor/Eng

Король Артур: Легенда меча / King Arthur: Legend of the Sword (2017) 720p Ukr/Eng | Sub Kor/Eng
Альтернативний постер


повнорозмірні зображення відкриються по кліку (з натиснутим CTRL чи кліком середньою кнопкою мишки - у новій вкладці)


Жанр: фентезі, бойовик, драма, пригодницький
Країна: США, Велика Британія, Австралія



Кінокомпанія: Warner Bros., Village Roadshow Pictures, Safehouse Pictures, Weed Road Pictures, Wigram Productions
Режисер: Ґай Річі / Guy Ritchie
Актори: Чарлі Ганнем / Charlie Hunnam, Астрід Берже-Фрісбі / Astrid Bergès-Frisbey, Джуд Лоу / Jude Law, Джимон Гунсу / Djimon Hounsou, Ерік Бана / Eric Bana, Ейден Ґіллен / Aidan Gillen, Аннабелль Волліс / Annabelle Wallis, Фредді Фокс / Freddie Fox, Ніл Мескелл / Neil Maskell, Девід Бекхем / David Beckham та інші

Сюжет:
Артур нічого не знає про своє минуле ... і не турбується про майбутнє – він живе тут і зараз. Кожен день хлопець ризикує розлучитися зі своїм життям. Його доля змінюється в той момент, коли він дістає з каменю чарівний меч Ескалібур, який і відкриває Артуру всю правду про його походження. Виявляється, він – спадкоємець убитих короля і королеви, а вбив їх рідний дядько Артура – Вортігерн ... Він незаконно захопив владу в Лондоніумі. Перед Артуром стоїть вибір: жити тим життям, до якого він звик, адже воно йому подобається, або допомогти народу скинути з престолу злого тирана. Що б він не вибрав – спокійного життя не побачить.
Офіційні українські трейлери:



Рейтинг MPAA: PG-13 - дітям до 13 років перегляд не бажаний
Вікова категорія: 12+
Тривалість: 01:59:45
Якість: 720p
Відео:
кодек:
розмір кадру: 1280 х 528
бітрейт: 3500 кб/с

Аудіо # 1:
мова: українська
переклад: професійний дубльований | Postmodern
кодек: 2.0
бітрейт: 192 кб/с
Інформація про дубляж

Режисер дубляжу: Павло Скороходько
Переклад: Олега Колеснікова
Звукорежисер: Олександр Мостовенко
Звукорежисер перезапису: Дмитро Мялковський
Ролі дублювали: Сергій Могилевський, Андрій Твердак, Кирило Нікітенко, Роман Чорний, Олена Борозенець, Дмитро Гаврилов, Олесь Гімбаржевський, Михайло Жонін, Андрій Самінін та інші.

Фільм дубльовано компанією Postmodern.
Аудіо # 2:
мова: англійська
переклад: оригінал
кодек: 2.0
бітрейт: 224 кб/с

Субтитри # 1:
мова: корейська
тип: вбудовані (жорсткі)

Субтитри # 2:
мова: англійська
тип: програмні (м'які)
формат: *.srt
Info
Код:
Complete name               : King Arthur - Legend of the Sword (2017) [Ukr,Eng sub.Kor,Eng] 720p [Hurtom].
Format                      :
Format version              : Version 4 / Version 2
File size                   : 3.26 GiB
Duration                    : 2 h 4 min
Overall bit rate            : 3 740 kb/s
Movie name                  : Король Артур: Легенда меча / King Arthur: Legend of the Sword (2017) [Ukr,Eng sub.Kor,Eng] 720p [Hurtom]
Released date               : 2017
Cover                       : Yes
Comment                     : http://www.imdb.com/title/tt1972591/
Attachments                 : cover.jpg
ARTIST                      : Чарлі Ганнем / Charlie Hunnam, Астрід Берже-Фрісбі / Astrid Bergès-Frisbey, Джуд Лоу / Jude Law, Джимон Гунсу / Djimon Hounsou, Ерік Бана / Eric Bana, Ейден Ґіллен / Aidan Gillen, Аннабелль Волліс / Annabelle Wallis, Фредді Фокс / Freddie Fox, Ніл Мескелл / Neil Maskell, Девід Бекхем / David Beckham та інші
DIRECTOR                    : Ґай Річі / Guy Ritchie
GENRE                       : фентезі, бойовик, драма, пригодницький
SYNOPSIS                    : Артур нічого не знає про своє минуле ... і не турбується про майбутнє – він живе тут і зараз. Кожен день хлопець ризикує розлучитися зі своїм життям. Його доля змінюється в той момент, коли він дістає з каменю чарівний меч Ескалібур, який і відкриває Артуру всю правду про його походження. Виявляється, він – спадкоємець убитих короля і королеви, а вбив їх рідний дядько Артура – Вортігерн ... Він незаконно захопив владу в Лондоніумі. Перед Артуром стоїть вибір: жити тим життям, до якої він звик, адже воно йому подобається, або допомогти народу скинути з престолу злобного тирана. Що б він не вибрав – спокійного життя не побачить.
Url                         : https://toloka.to/t82566

Video
ID                          : 1
Format                      : AVC
Format/Info                 : Advanced Video Codec
Format profile              : [email protected]
Format settings, CABAC      : Yes
Format settings, ReFrames   : 4 frames
Codec ID                    : V_MPEG4/ISO/AVC
Duration                    : 1 h 59 min
Bit rate                    : 3 500 kb/s
Width                       : 1 280 pixels
Height                      : 528 pixels
Display aspect ratio        : 2.40:1
Frame rate mode             : Constant
Frame rate                  : 29.970 (30000/1001) FPS
Color space                 : YUV
Chroma subsampling          : 4:2:0
Bit depth                   : 8 bits
Scan type                   : Progressive
Bits/(Pixel*Frame)          : 0.173
Stream size                 : 2.91 GiB (89%)
Title                       : Король Артур: Легенда меча / King Arthur: Legend of the Sword (2017) 720p | Sub Kor [STUTTERSHIT]
Writing library             : core 148 r2748 97eaef2
Encoding settings           : cabac=1 / ref=4 / deblock=1:0:0 / analyse=0x3:0x113 / me=hex / subme=8 / psy=1 / psy_rd=1.00:0.00 / mixed_ref=1 / me_range=16 / chroma_me=1 / trellis=2 / 8x8dct=1 / cqm=0 / deadzone=21,11 / fast_pskip=1 / chroma_qp_offset=-2 / threads=40 / lookahead_threads=4 / sliced_threads=0 / nr=0 / decimate=1 / interlaced=0 / bluray_compat=0 / constrained_intra=0 / bframes=3 / b_pyramid=2 / b_adapt=1 / b_bias=0 / direct=3 / weightb=1 / open_gop=0 / weightp=2 / keyint=250 / keyint_min=25 / scenecut=40 / intra_refresh=0 / rc_lookahead=50 / rc=abr / mbtree=1 / bitrate=3500 / ratetol=1.0 / qcomp=0.60 / qpmin=0 / qpmax=69 / qpstep=4 / ip_ratio=1.40 / aq=1:1.00
Language                    : English
Default                     : Yes
Forced                      : No

Audio #1
ID                          : 2
Format                      : AC-3
Format/Info                 : Audio Coding 3
Format settings, Endianness : Big
Codec ID                    : A_AC3
Duration                    : 1 h 59 min
Bit rate mode               : Constant
Bit rate                    : 192 kb/s
Channel(s)                  : 2 channels
Channel positions           : Front: L R
Sampling rate               : 48.0 kHz
Frame rate                  : 31.250 FPS (1536 spf)
Bit depth                   : 16 bits
Compression mode            : Lossy
Stream size                 : 164 MiB (5%)
Title                       : DUB [LeDoyen, Line] 2.0 192 Kbps [Hurtom-Covenant]
Language                    : Ukrainian
Service kind                : Complete Main
Default                     : Yes
Forced                      : Yes

Audio #2
ID                          : 3
Format                      :
Format/Info                 : Advanced Audio Codec
Format profile              : LC
Codec ID                    : A_AAC
Duration                    : 1 h 59 min
Bit rate                    : 224 kb/s
Channel(s)                  : 2 channels
Channel positions           : Front: L R
Sampling rate               : 44.1 kHz
Frame rate                  : 43.066 FPS (1024 spf)
Compression mode            : Lossy
Delay relative to video     : 46 ms
Stream size                 : 192 MiB (6%)
Language                    : English
Default                     : No
Forced                      : No

Text
ID                          : 4
Format                      : UTF-8
Codec ID                    : S_TEXT/UTF8
Codec ID/Info               : UTF-8 Plain Text
Duration                    : 2 h 1 min
Bit rate                    : 43 b/s
Count of elements           : 1346
Stream size                 : 39.2 KiB (0%)
Language                    : English
Default                     : No
Forced                      : No
Скріншоти:





Джерело: &
Подяка Covenant'у за український звук.


 Трекер:    Зареєстрований   

Завантажити / скачати фільм українською



відео для новачків



 Зареєстрований:   2017-06-24 20:38
 Розмір:   3.26 GB 
 Оцінка фільму:   8.1/10 (Голосів: 55)
   
SHooZ 
Частий відвідувач


З нами з: 18.12.13
Востаннє: 22.07.17
Повідомлень: 31

2017-06-24 20:34  
Меч у Камені ж не був Екскалібуром
Electroz 
Відео Гуртом - підтримка та поширення
Відео Гуртом - підтримка та поширення


З нами з: 18.09.14
Востаннє: 23.07.17
Повідомлень: 1442

2017-06-24 20:47  
Anonymous написано:
студія LeDoyen

Postmodern

don pedro 
Попереджень: 1
Попереджень: 1 


З нами з: 29.06.11
Востаннє: 23.07.17
Повідомлень: 9958

2017-06-24 21:52  
SHooZ
Сюжет фільму має вельми віддалений стосунок до класної історії.

kill_1 
Свій


З нами з: 11.07.10
Востаннє: 20.07.17
Повідомлень: 93

2017-06-25 14:08  
Честно фільм так собі краще подивитися той же Варкрафт мені його нагадало =))
Estranded 
VIP


З нами з: 09.02.14
Востаннє: 22.07.17
Повідомлень: 905

2017-06-26 11:57  
Фільм на один раз, очікував більшого: ні якихось видовищних боїв, ні послідовної постановки, герої якісь не розкриті, занадто швидко розвиваються події. Переваги: гарна робота оператора, музичний супровід.
6/10 — на один раз! Якщо не вдавитися в деталі, то можна дивитися.

TeronUA 
VIP


З нами з: 13.02.09
Востаннє: 19.07.17
Повідомлень: 274

2017-06-29 10:43  
А мені фільм сподобався!)))
Поставлю 8 з 10!)))
Герої достатньо розкриті, як для такого фільму))) Це ж не драма з купою психологічних тонкощів на 4-5 години!)))
+ щодо швидкості подій, то так воно і є у житті: все більш-менш спокійно, а потім трам-тарарам і все одразо пішло!)))

savin_a 
Новенький


З нами з: 24.11.15
Востаннє: 22.07.17
Повідомлень: 9

2017-06-29 11:56  
Якість відео не дуже, вибачте Sad (1)
Фільм не подивився, буду чекати на інший реліз

Туман21 
Частий відвідувач


З нами з: 06.02.12
Востаннє: 22.07.17
Повідомлень: 28

2017-06-29 12:13  
Так, якість так собі, але для ознайомлення можна подивитися, тим більше що все чути, все видно.
Фільм сподобався, є в ньому щось таке що змушує його додивитися до кінця. Хоч бі й раз. Хоча шкода що тут не було Мерліна (я не розумію як можна показувати історію Короля Артура, Ескалібура і Камелоту без Мерліна).
8/10

MrRyanCooper 
VIP


З нами з: 24.08.12
Востаннє: 21.07.17
Повідомлень: 334

2017-07-19 20:50  
Подивися, особисто мені сподобався дуже - 12/12. Не жалію, що час витратив.
Туман21, так, його тільки згадали словами, а показали мельком і все, жаль :-(

Bruce_Nolan 
Свій


З нами з: 17.06.14
Востаннє: 21.07.17
Повідомлень: 135

2017-07-20 21:48  
Фільм реально бомбовий, чекав класного, але щоб аж так....і саунд капітальний, я вражений! 12балів. Не те, що Конан з Дж. Момоа :-)
Ваш часовий пояс: GMT + 2 Години

Нова тема   Відповісти