День бабака / Groundhog Day (1993) 4K 2160p 2xUkr/Eng | Sub Eng

Нові коментарі

Нова тема   Відповісти
Автор Повідомлення
vital1092 
Новенький


З нами з: 24.06.17
Востаннє: 19.08.17
Повідомлень: 3

2017-06-24 18:03  
День бабака / Groundhog Day (1993) 4K 2160p 2xUkr/Eng | Sub Eng

День бабака / Groundhog Day (1993) 4K 2160p 2xUkr/Eng | Sub Eng


Жанр: комедія, фентезі, романтичний
Країна: США



Кінокомпанія: Columbia Pictures Industries, Inc.
Режисер: Гарольд Раміс
Актори: Білл Мюррей, Енді Макдауелл, Кріс Елліот, Стівен Тоболовський та ін.

Сюжет:
Телевізійний коментатор Філ Коннорс щороку приїжджає в маленьке містечко в штаті Пенсільванія на святкування Дня Бабака. Але цього разу веселість ризикує зайти дуже далеко. Час зіграв з ним злий жарт: він узяв та й зупинився. Тепер на календарі Філа чорніє одна і та ж дата - 2 лютого, з якої він ніяк не може вибратися. Безжурний ведучий намагається отримати вигоду зі свого комічного положення: попереду у нього сила-силенна часу і безтурботне передбачене майбутнє. Віднині з ним не трапиться нічого поганого... і нічого хорошого. У Філа залишилася одна заповітна мрія, проста і нехитра - 3 лютого..


Тривалість: 1:41:02
Якість: 4K 2160p [Sony 4K Video Unlimited Service]
Відео:
кодек:
розмір кадру: 3840 х 2160
бітрейт: 49.3 Мбіт/с

Аудіо # 1:
мова: українська
переклад: багатоголосий закадровий
кодек: 2.0
бітрейт: 192 кб/с

Аудіо # 2:
мова: українська
переклад: двоголосий закадровий
кодек: 2.0
бітрейт: 192 кб/с
примітка: доріжка у контейнері виставлена за замовчуванням

Аудіо # 3:
мова: англійська
кодек: -HD Master Audio 5.1
бітрейт: 2410 кб/с

Аудіо # 4:
мова: англійська
Коментар режисера Гарольда Реміса
кодек: 2.0
бітрейт: 192 кб/с

Субтитри:
мова: англійська, коментар режисера Гарольда Реміса

Джерело озвучення:
&
Info

General
Unique ID : 248488829052507731597798555541204766859 (0xBAF13529FA8DECC7926A481EF102108B)
Complete name : D:\Відеозаписи\Groundhog Day 2160p.
Format :
Format version : Version 4 / Version 2
File size : 37.9 GiB
Duration : 1 h 41 min
Overall bit rate : 53.6 Mb/s
Movie name : Groundhog Day (1993) - Release for ULTRAHDCLUB
Encoded date : UTC 2017-06-30 21:46:23
Writing application : mkvmerge v11.0.0 ('Alive') 64bit
Writing library : libebml v1.3.4 + libmatroska v1.4.5
Attachments : CronosPro-Bold.ttf / CronosPro-Semibold.ttf / CronosPro-SemiboldIt.ttf

Video
ID : 1
Format : HEVC
Format/Info : High Efficiency Video Coding
Codec ID : V_MPEGH/ISO/HEVC
Duration : 1 h 41 min
Bit rate : 49.3 Mb/s
Width : 3 840 pixels
Height : 2 160 pixels
Display aspect ratio : 16:9
Frame rate mode : Constant
Frame rate : 23.976 (24000/1001) FPS
Bits/(Pixel*Frame) : 0.248
Stream size : 34.8 GiB (92%)
Title : Groundhog Day (1993)
Language : English
Default : Yes
Forced : No

Audio #1
ID : 2
Format : AC-3
Format/Info : Audio Coding 3
Format settings, Endianness : Big
Codec ID : A_AC3
Duration : 1 h 41 min
Bit rate mode : Constant
Bit rate : 192 kb/s
Channel(s) : 2 channels
Channel positions : Front: L R
Sampling rate : 48.0 kHz
Frame rate : 31.250 FPS (1536 spf)
Bit depth : 16 bits
Compression mode : Lossy
Delay relative to video : 2 ms
Stream size : 139 MiB (0%)
Title : 2.0 @ 192 kbps - MVO, Ukraina
Language : Ukrainian
Service kind : Complete Main
Default : No
Forced : No

Audio #2
ID : 3
Format : AC-3
Format/Info : Audio Coding 3
Format settings, Endianness : Big
Codec ID : A_AC3
Duration : 1 h 41 min
Bit rate mode : Constant
Bit rate : 192 kb/s
Channel(s) : 2 channels
Channel positions : Front: L R
Sampling rate : 48.0 kHz
Frame rate : 31.250 FPS (1536 spf)
Bit depth : 16 bits
Compression mode : Lossy
Delay relative to video : 2 ms
Stream size : 139 MiB (0%)
Title : 2.0 @ 192 kbps - MVO, 1+1
Language : Ukrainian
Service kind : Complete Main
Default : Yes
Forced : Yes

Audio #3
ID : 4
Format :
Format/Info : Digital Theater Systems
Format profile : MA / Core
Mode : 16
Format settings, Endianness : Big
Codec ID : A_DTS
Duration : 1 h 41 min
Bit rate mode : Variable / Constant
Bit rate : 3 740 kb/s / 1 509 kb/s
Channel(s) : 6 channels
Channel positions : Front: L C R, Side: L R, LFE
Sampling rate : 48.0 kHz
Frame rate : 93.750 FPS (512 spf)
Bit depth : 24 bits
Compression mode : Lossless / Lossy
Delay relative to video : 2 ms
Stream size : 2.64 GiB (7%)
Title : -HD MA 5.1
Language : English
Default : No
Forced : No

Audio #4
ID : 5
Format : AC-3
Format/Info : Audio Coding 3
Mode : Dolby Digital
Format settings, Endianness : Big
Codec ID : A_AC3
Duration : 1 h 41 min
Bit rate mode : Constant
Bit rate : 192 kb/s
Channel(s) : 2 channels
Channel positions : Front: L R
Sampling rate : 48.0 kHz
Frame rate : 31.250 FPS (1536 spf)
Bit depth : 16 bits
Compression mode : Lossy
Delay relative to video : 2 ms
Stream size : 139 MiB (0%)
Title : 2.0 @ 192 kbps - Commentary with director Harold Ramis
Language : English
Service kind : Complete Main
Default : No
Forced : No

Text #1
ID : 6
Format : ASS
Codec ID : S_TEXT/ASS
Codec ID/Info : Advanced Sub Station Alpha
Duration : 1 h 40 min
Bit rate : 111 b/s
Count of elements : 1326
Compression mode : Lossless
Stream size : 81.7 KiB (0%)
Language : English
Default : No
Forced : No

Text #2
ID : 7
Format : UTF-8
Codec ID : S_TEXT/UTF8
Codec ID/Info : UTF-8 Plain Text
Duration : 1 h 37 min
Bit rate : 57 b/s
Count of elements : 1325
Stream size : 41.0 KiB (0%)
Language : English
Default : No
Forced : No
Скріншоти
Джерело: &
Особиста оцінка: 10 - без зайвих вагань рекомендую всім!


Золотий реліз (завантажене не впливає на рейтинг)
 Трекер:    Зареєстрований   

Завантажити / скачати фільм українською



відео для новачків



 Зареєстрований:   2017-07-01 02:08
 Розмір:   37.86 GB 
 Оцінка фільму:   10/10 (Голосів: 9)
   
Інші релізи
   День бабака / Groundhog Day (1993) AVC 2xUkr/Eng | Sub Eng BASTERD-94  9 / 0   1.79 GB   2017-02-02 21:30 
   День бабака / Groundhog Day (1993) [MP4, 640x] apvAltisimo  0 / 0   651 MB   2015-12-30 15:15 
   День Бабака / Groundhog Day (1993) 1080р 2хUkr/Eng | Sub Eng Ramirezz  3 / 0   9.45 GB   2014-12-07 12:47 
   День бабака / Groundhog Day (1993) 2хUkr/Eng | Sub Eng karvai0  4 / 0   1.85 GB   2014-01-12 16:15 
   День Бабака / Groundhog Day (1993) 720р 2хUkr/Eng | Sub Eng DiGen  14 / 0   4.35 GB   2011-02-27 20:34 
sandman 
Поважний учасник


З нами з: 12.08.12
Востаннє: 20.08.17
Повідомлень: 166

2017-06-25 14:07  
непогано було б оригінальну англійську доріжку додати
vital1092 
Новенький


З нами з: 24.06.17
Востаннє: 19.08.17
Повідомлень: 3

2017-06-25 17:30  
sandman
Робив щоб менше місця займало.

NeetScrool 
Відео Гуртом - фільмокрай
Відео Гуртом - фільмокрай


З нами з: 10.01.13
Востаннє: 21.08.17
Повідомлень: 2613

2017-06-26 00:36  
vital1092
35 гб і 500 мб оригінальний звук.

Економія на сірниках.

11FrYkT 
Модератор відео


З нами з: 20.02.11
Востаннє: 21.08.17
Повідомлень: 3807

2017-06-29 12:43  
vital1092 написано:
UHD 2160p Ukr

Цитата:
Якість:

Скоріше за все якийсь БДріп

далі оригінаольна доріжка обов*язкова, також якщо є англ саби то додайте

vital1092 
Новенький


З нами з: 24.06.17
Востаннє: 19.08.17
Повідомлень: 3

2017-07-01 00:30  
Додав оригінальну доріжку та коментарі режисера з субтитрами.
Торрент оновив.

leicheman 
Відео Гуртом - підтримка та поширення
Відео Гуртом - підтримка та поширення


З нами з: 03.07.14
Востаннє: 21.08.17
Повідомлень: 1050

2017-07-01 00:37  
vital1092
тепер переробіть поки ніхто не завантажив так, щоб українські доріжки були першими, а вже потім оригінальна.

taraso23 
Частий відвідувач


З нами з: 29.12.12
Востаннє: 18.08.17
Повідомлень: 28

2017-07-01 19:39  
Це вперше тут фільм такої роздільної здатності?
igor911 
Відео Гуртом
Відео Гуртом


З нами з: 18.01.08
Востаннє: 21.08.17
Повідомлень: 7309

2017-07-01 19:41  
taraso23 написано:
Це вперше тут фільм такого розширення?

ні https://toloka.to/tracker.php?nm=4K

taraso23 
Частий відвідувач


З нами з: 29.12.12
Востаннє: 18.08.17
Повідомлень: 28

2017-07-01 19:49  
igor911
Оу, круто) Як на мене, їх би добре було відокремити в окремий підрозділ. Але їх ще занадто мало)

igor911 
Відео Гуртом
Відео Гуртом


З нами з: 18.01.08
Востаннє: 21.08.17
Повідомлень: 7309

2017-07-01 20:27  
Кого цікавить порівняння якості картинки з блуреєм:
Кого цікавить - порівняння якості картинки цього ріпу з блуреєм*:

повні скріншоти:

цей ріп<----------> блурей






порівняння окремих ділянок:
http://screenshotcomparison.com/comparison/149758

*взято з http://ultrahdclub.org

Ваш часовий пояс: GMT + 2 Години

Нова тема   Відповісти