Війна / Man Down (2015) 1080p Ukr/Eng | Sub Eng

Нові коментарі

Нова тема   Відповісти
Автор Повідомлення
IronBee 
Поважний учасник


З нами з: 08.02.10
Востаннє: 22.09.20
Повідомлень: 231

2017-06-24 16:07  
Війна / Man Down (2015) 1080p Ukr/Eng | Sub Eng

Війна / Man Down (2015) 1080p Ukr/Eng | Sub Eng


Жанр: драма, трилер
Країна: США



Кінокомпанія: Krannel Pictures
Режисер: Діто Монтіель
Актори: Шая ЛаБаф, Джай Кортні, Ґері Олдман, Кейт Мара, Торі Кіттлз, Кліфтон Коллінз-мол., Чарлі Шотуелл, Хосе Пабло Кантільо, Джастін Сміт, П'єр Кеннел та інші

Сюжет:
Головний герой фільму – морський піхотинець Гебріел Драммер (Шая ЛаБаф). Він залишає улюблену дружину Наталі (Кейт Мара) з маленьким сином і відправляється в Афганістан. Участь у військових діях змінює чоловіка, і керівництво приймає рішення відправити його додому. Але рідне місто він бачить зовсім не таким, як очікував. Вся Америка знаходиться в хаосі, більшість будинків зруйновані, а людей практично немає. Тепер головною метою Гебріела стали пошуки дружини і сина.


Тривалість: 01:30:28
Якість: 1080p
Відео:
кодек:
розмір кадру: 1920 х 788
бітрейт: 14.7 Mb/s

Аудіо # 1:
мова: українська (MEGOGO.NET)
переклад: багатоголосий закадровий
кодек: 2.0
бітрейт: 192 кб/с

Аудіо # 2:
мова: англійська
переклад: оригінал
кодек: 5.1
бітрейт: 1509 кб/с

Субтитри: (Full, SHD):
мова: англійська
тип: програмні (м'які)
формат: *.srt
Info
General
Unique ID : 226404767533753104837617252785252873329 (0xAA53F8DDCEF7B9E0BCD38C6B5D923471)
Complete name : D:\Films\Війна Man Down (2015) BDRip1080p UkrEng Sub Eng[Hurtom].
Format :
Format version : Version 4 / Version 2
File size : 10.4 GiB
Duration : 1 h 30 min
Overall bit rate : 16.4 Mb/s
Encoded date : UTC 2017-06-24 09:45:18
Writing application : v12.0.0 ('Trust / Lust') 64bit
Writing library : libebml v1.3.4 + v1.4.5

Video
ID : 1
Format : AVC
Format/Info : Advanced Video Codec
Format profile : [email protected]
Format settings, CABAC : Yes
Format settings, ReFrames : 5 frames
Codec ID : V_MPEG4/ISO/AVC
Duration : 1 h 30 min
Bit rate : 14.7 Mb/s
Width : 1 920 pixels
Height : 788 pixels
Display aspect ratio : 2.40:1
Frame rate mode : Constant
Frame rate : 23.976 (24000/1001) FPS
Color space : YUV
Chroma subsampling : 4:2:0
Bit depth : 8 bits
Scan type : Progressive
Bits/(Pixel*Frame) : 0.406
Stream size : 9.31 GiB (90%)
Writing library : core 148 r2692+46 0f71ed5 7mod [[email protected] X86_64]
Encoding settings : cabac=1 / ref=5 / deblock=1:-3:-3 / analyse=0x3:0x113 / me=umh / subme=11 / psy=1 / fade_compensate=0.00 / psy_rd=1.00:0.00 / mixed_ref=1 / me_range=48 / chroma_me=1 / trellis=2 / 8x8dct=1 / cqm=0 / deadzone=11,6 / fast_pskip=0 / chroma_qp_offset=-2 / threads=25 / lookahead_threads=4 / sliced_threads=0 / nr=0 / decimate=0 / interlaced=0 / bluray_compat=0 / constrained_intra=0 / fgo=0 / bframes=8 / b_pyramid=2 / b_adapt=2 / b_bias=0 / direct=3 / weightb=1 / open_gop=0 / weightp=2 / keyint=250 / keyint_min=23 / scenecut=40 / intra_refresh=0 / rc_lookahead=60 / rc=crf / mbtree=0 / crf=17.8000 / qcomp=0.65 / qpmin=0:0:0 / qpmax=32:32:32 / qpstep=4 / vbv_maxrate=40000 / vbv_bufsize=30000 / crf_max=0.0 / nal_hrd=none / filler=0 / ip_ratio=1.30 / pb_ratio=1.20 / aq=4:0.75 / aq-sensitivity=10.00 / aq-factor=1.00:1.00:1.00 / aq2=0 / aq3=0
Language : English
Default : Yes
Forced : No
Color range : Limited
Color primaries : BT.709
Transfer characteristics : BT.709
Matrix coefficients : BT.709

Audio #1
ID : 2
Format : AC-3
Format/Info : Audio Coding 3
Mode extension : CM (complete main)
Format settings, Endianness : Big
Codec ID : A_AC3
Duration : 1 h 30 min
Bit rate mode : Constant
Bit rate : 192 kb/s
Channel(s) : 2 channels
Channel positions : Front: L R
Sampling rate : 48.0 kHz
Frame rate : 31.250 FPS (1536 spf)
Bit depth : 16 bits
Compression mode : Lossy
Stream size : 124 MiB (1%)
Default : Yes
Forced : No

Audio #2
ID : 3
Format :
Format/Info : Digital Theater Systems
Mode : 16
Format settings, Endianness : Big
Codec ID : A_DTS
Duration : 1 h 30 min
Bit rate mode : Constant
Bit rate : 1 509 kb/s
Channel(s) : 6 channels
Channel positions : Front: L C R, Side: L R, LFE
Sampling rate : 48.0 kHz
Frame rate : 93.750 FPS (512 spf)
Bit depth : 24 bits
Compression mode : Lossy
Stream size : 977 MiB (9%)
Title : Original
Language : English
Default : No
Forced : No

Text #1
ID : 4
Format : UTF-8
Codec ID : S_TEXT/UTF8
Codec ID/Info : UTF-8 Plain Text
Duration : 1 h 23 min
Bit rate : 58 b/s
Count of elements : 1211
Stream size : 36.1 KiB (0%)
Title : Full
Language : English
Default : No
Forced : No

Text #2
ID : 5
Format : UTF-8
Codec ID : S_TEXT/UTF8
Codec ID/Info : UTF-8 Plain Text
Duration : 1 h 24 min
Bit rate : 61 b/s
Count of elements : 1332
Stream size : 38.4 KiB (0%)
Title : SDH
Language : English
Default : No
Forced : No

Menu
00:00:00.000 : en:00:00:00.000
00:06:06.825 : en:00:06:06.825
00:14:00.298 : en:00:14:00.298
00:18:42.455 : en:00:18:42.455
00:23:51.638 : en:00:23:51.638
00:29:41.780 : en:00:29:41.780
00:36:41.074 : en:00:36:41.074
00:42:24.709 : en:00:42:24.709
00:47:42.568 : en:00:47:42.568
00:51:38.053 : en:00:51:38.053
00:55:29.284 : en:00:55:29.284
01:00:19.574 : en:01:00:19.574
01:04:54.015 : en:01:04:54.015
01:10:14.126 : en:01:10:14.126
01:14:31.592 : en:01:14:31.592
01:21:13.118 : en:01:21:13.118
Скріншоти





Джерело: &
Особиста оцінка: 10 - без зайвих вагань рекомендую всім!


 Трекер:    Зареєстрований   

Завантажити / скачати фільм українською



відео для новачків



 Зареєстрований:   2017-06-24 16:07
 Розмір:   10.38 GB 
 Оцінка фільму:   8.5/10 (Голосів: 11)
   
Інші релізи
   Війна / Man Down (2015) AVC 2xUkr/Eng | Sub Eng drop_plz  3 / 0   1.88 GB   2018-07-15 10:03 
   Війна / Man Down (2015) Remux 1080p Ukr/Eng | Sub Eng IronBee  1 / 0   18.29 GB   2017-06-24 16:29 
   Війна / Man Down (2015) AngryBirdsUA  3 / 0   1.45 GB   2017-06-24 09:56 
   Війна / Man Down (2015) AVC Ukr/Eng | Sub Eng Electroz  5 / 0   1.76 GB   2017-06-20 12:45 
Electroz 
Відео Гуртом - підтримка та поширення
Відео Гуртом - підтримка та поширення


З нами з: 18.09.14
Востаннє: 23.09.20
Повідомлень: 4018

2017-06-24 17:08  
MerylStreep написано:
Немає перекладу близько хвилини. Десь 59 хвилина.


Чому не зробили субтитри на не озвучені моменти?

hightwest 
Новенький


З нами з: 02.10.15
Востаннє: 22.08.20
Повідомлень: 14

2018-12-01 22:12  
Навiть не читаючи сюжет усе зрозумiло одразу. 6/10
Ваш часовий пояс: GMT + 2 Години

Нова тема   Відповісти