Хто зупинить дощ / Who'll Stop the Rain (1978) 1080p Ukr/Eng | Sub Eng

Нові коментарі

Нова тема   Відповісти
Останній раз роздавалося Інженер65 (2017-08-13)
Автор Повідомлення
Babamin 
Частий відвідувач


З нами з: 29.12.15
Востаннє: 15.12.17
Повідомлень: 33

2017-06-24 00:20  
Хто зупинить дощ / Who'll Stop the Rain (1978) 1080p Ukr/Eng | Sub Eng



Жанр: бойовик, драма, кримінальний, трилер
Країна: США



Кінокомпанія: Katzka-Jaffe
Режисер: Карел Рейш
Актори: Нік Нолті, Тьюзді Уелд, Майкл Моріарті, Ентоні Зерб, Річард Мейсер, Рей Шаркі, Гейл Стрікленд

Сюжет:
Ветеран в'єтнамської війни стає учасником операції по контрабанді героїну з Південно-Східної Азії в Каліфорнію.


Тривалість: 02:06:15
Якість: 1080p (Babamin)

Відео:
кодек:
розмір кадру: 1920 х 1040
бітрейт: 14,8 Мб/с

Аудіо # 1:
мова: українська
переклад: багатоголосий закадровий
кодек: 2.0
бітрейт: 192 кб/с

Аудіо # 2:
мова: англійська
переклад: оригінал
кодек: 2.0
бітрейт: 1509 кб/с

Субтитри:
мова: англійська (SDH)
тип: програмні (м'які)
формат: *.srt
Info:
General
Complete name : Who'll.Stop.Rain(1978)..1080p.[Hurtom].
Format :
Format version : Version 4 / Version 2
File size : 14.6 GiB
Duration : 2 h 6 min
Overall bit rate : 16.5 Mb/s
Movie name : Who'll Stop Rain (1978) (1080p) -[Hurtom]
Encoded date : UTC 2017-06-23 20:41:53
Writing application : mkvmerge v12.0.0 ('Trust / Lust') 64bit
Writing library : libebml v1.3.4 + libmatroska v1.4.5

Video
ID : 1
Format : AVC
Format/Info : Advanced Video Codec
Format profile : [email protected]
Format settings, CABAC : Yes
Format settings, ReFrames : 4 frames
Codec ID : V_MPEG4/ISO/AVC
Duration : 2 h 6 min
Bit rate : 14.8 Mb/s
Width : 1 920 pixels
Height : 1 040 pixels
Display aspect ratio : 1.85:1
Frame rate mode : Constant
Frame rate : 23.976 (24000/1001) FPS
Color space : YUV
Chroma subsampling : 4:2:0
Bit depth : 8 bits
Scan type : Progressive
Bits/(Pixel*Frame) : 0.309
Stream size : 13.1 GiB (90%)
Writing library : core 150 r2833 df79067
Encoding settings : cabac=1 / ref=4 / deblock=1:-3:-3 / analyse=0x3:0x113 / me=umh / subme=11 / psy=1 / psy_rd=1.00:0.15 / mixed_ref=1 / me_range=32 / chroma_me=1 / trellis=2 / 8x8dct=1 / cqm=0 / deadzone=21,11 / fast_pskip=1 / chroma_qp_offset=-2 / threads=4 / lookahead_threads=1 / sliced_threads=0 / nr=0 / decimate=1 / interlaced=0 / bluray_compat=0 / constrained_intra=0 / bframes=11 / b_pyramid=2 / b_adapt=1 / b_bias=0 / direct=1 / weightb=1 / open_gop=0 / weightp=2 / keyint=240 / keyint_min=23 / scenecut=40 / intra_refresh=0 / rc_lookahead=50 / rc=2pass / mbtree=0 / bitrate=14809 / ratetol=1.0 / qcomp=0.60 / qpmin=0 / qpmax=69 / qpstep=4 / cplxblur=20.0 / qblur=0.5 / vbv_maxrate=42500 / vbv_bufsize=58125 / nal_hrd=none / filler=0 / ip_ratio=1.40 / pb_ratio=1.30 / aq=1:0.80
Default : Yes
Forced : No

Audio #1
ID : 2
Format : AC-3
Format/Info : Audio Coding 3
Format settings, Endianness : Big
Codec ID : A_AC3
Duration : 2 h 6 min
Bit rate mode : Constant
Bit rate : 192 kb/s
Channel(s) : 2 channels
Channel positions : Front: L R
Sampling rate : 48.0 kHz
Frame rate : 31.250 FPS (1536 spf)
Bit depth : 16 bits
Compression mode : Lossy
Stream size : 173 MiB (1%)
Title : amc
Language : Ukrainian
Service kind : Complete Main
Default : Yes
Forced : No

Audio #2
ID : 3
Format :
Format/Info : Digital Theater Systems
Mode : 16
Format settings, Endianness : Big
Codec ID : A_DTS
Duration : 2 h 6 min
Bit rate mode : Constant
Bit rate : 1 509 kb/s
Channel(s) : 2 channels
Channel positions : Front: L R
Sampling rate : 48.0 kHz
Frame rate : 93.750 FPS (512 spf)
Bit depth : 24 bits
Compression mode : Lossy
Stream size : 1.33 GiB (9%)
Language : English
Default : No
Forced : No

Text
ID : 4
Format : UTF-8
Codec ID : S_TEXT/UTF8
Codec ID/Info : UTF-8 Plain Text
Duration : 2 h 4 min
Bit rate : 56 b/s
Count of elements : 1579
Stream size : 51.1 KiB (0%)
Title : SDH
Language : English
Default : Yes
Forced : No

Menu
00:00:00.000 : :Chapter 01
00:07:36.581 : :Chapter 02
00:10:58.240 : :Chapter 03
00:15:22.087 : :Chapter 04
00:20:26.308 : :Chapter 05
00:25:05.212 : :Chapter 06
00:28:47.642 : :Chapter 07
00:38:14.834 : :Chapter 08
00:42:57.575 : :Chapter 09
00:47:31.890 : :Chapter 10
00:52:38.154 : :Chapter 11
00:57:24.816 : :Chapter 12
01:04:17.436 : :Chapter 13
01:08:45.287 : :Chapter 14
01:12:36.477 : :Chapter 15
01:19:20.422 : :Chapter 16
01:24:23.600 : :Chapter 17
01:30:27.046 : :Chapter 18
01:34:49.475 : :Chapter 19
01:39:03.771 : :Chapter 20
01:45:49.885 : :Chapter 21
01:50:03.680 : :Chapter 22
01:55:34.928 : :Chapter 23
02:03:47.211 : :Chapter 24
Скріншоти:









Подяка пану slavik_v_z за українську доріжку
Зведення звуку: Babamin


Срібний реліз (на рейтинг впливає 50% завантаженого)
 Трекер:    Зареєстрований   

Завантажити / скачати фільм українською



відео для новачків



 Зареєстрований:   2017-06-24 00:20
 Розмір:   14.56 GB 
 Оцінка фільму:   10/10 (Голосів: 1)
   
Інші релізи
   Хто зупинить дощ / Who'll Stop the Rain (1978) Arsenfpu  4 / 0   2.16 GB   2016-10-15 21:46 
Ваш часовий пояс: GMT + 2 Години

Нова тема   Відповісти