Б'ютифул / Biutiful (2010) 1080p Ukr/Spa | Sub Eng

Нові коментарі

Нова тема   Відповісти
Автор Повідомлення
IronBee 
Свій


З нами з: 08.02.10
Востаннє: 22.08.17
Повідомлень: 61

2017-06-23 20:38  
Б'ютифул / Biutiful (2010) 1080p Ukr/Spa | Sub Eng

Б'ютифул / Biutiful (2010) 1080p Ukr/Spa | Sub Eng


Жанр: драма
Країна: Мексика, Іспанія



Кінокомпанія: Menageatroz, Mod Producciones, Focus Features, Televisión Española (TVE), Televisió de Catalunya (TV3), Ikiru Films, Cha Cha Chá Films
Режисер: Алехандро Гонсалес Іньярріту / Alejandro González Iñárritu
Актори: Хав'єр Бардем / Javier Bardem, Марісель Альварес / Maricel Álvarez, Ханна Бушаіб / Hanaa Bouchaib, Гільєрмо Естрелла / Guillermo Estrella, Едуард Фернандес / Eduard Fernández, Шейх Ндіай / Cheikh Ndiaye, Діарьяту Дафф / Diaryatou Daff, Чен Таї Шен / Taishen Cheng, Ло Цзінь / Jin Luo, Джордж Чібуіквем Чуквума / George Chibuikwem Chukwuma та інші

Сюжет:
Розлучений батько двох дітей Уксбаль (Хав'єр Бардем) - своя людина у тіньовому світі Барселони. Для правоохоронних органів він - порушник закону; для нелегальних іммігрантів, яким допомагає отримати роботу - добрий ангел. Дізнавшись, що невиліковно хворий, Уксбаль починає готуватися до смерті, роздумуючи про минуле і залагоджуючи справи в сьогоденні...


Тривалість: 02:27:22
Якість: 1080p
Відео:
кодек:
розмір кадру: 1910 х 1040
бітрейт: 17.0 Mb/s

Аудіо # 1:
мова: українська
переклад: багатоголосий закадровий
кодек: 2.0
бітрейт: 192 кб/с

Джерело озвучення:


Аудіо # 2:
мова: іспанська
переклад: оригінал
кодек: 5.1
бітрейт: 640 кб/с

Субтитри:
мова: англійська
тип: програмні (м'які)
формат: *.srt

Субтитри:
мова: іспанська (лише на фрази африканською та китайською мовами )
тип: програмні (м'які)
формат: *.srt
Info
General
Unique ID : 192670218058225772750893281237191476068 (0x90F2EF2A06509BEA914231E2BDC9C364)
Complete name : D:\Films\Biutiful (2010) [Ukr,Spa sub.Eng] 1080p [Hurtom].
Format :
Format version : Version 4 / Version 2
File size : 18.4 GiB
Duration : 2 h 27 min
Overall bit rate : 17.8 Mb/s
Encoded date : UTC 2017-06-23 10:22:26
Writing application : mkvmerge v12.0.0 ('Trust / Lust') 64bit
Writing library : libebml v1.3.4 + libmatroska v1.4.5

Video
ID : 1
Format : AVC
Format/Info : Advanced Video Codec
Format profile : [email protected]
Format settings, CABAC : Yes
Format settings, ReFrames : 4 frames
Codec ID : V_MPEG4/ISO/AVC
Duration : 2 h 27 min
Bit rate : 17.0 Mb/s
Width : 1 910 pixels
Height : 1 040 pixels
Display aspect ratio : 1.85:1
Frame rate mode : Constant
Frame rate : 23.976 (24000/1001) FPS
Color space : YUV
Chroma subsampling : 4:2:0
Bit depth : 8 bits
Scan type : Progressive
Bits/(Pixel*Frame) : 0.357
Stream size : 17.5 GiB (95%)
Writing library : core 118 r2085 8a62835
Encoding settings : cabac=1 / ref=4 / deblock=1:-3:-3 / analyse=0x3:0x133 / me=umh / subme=11 / psy=1 / psy_rd=0.90:0.10 / mixed_ref=1 / me_range=96 / chroma_me=1 / trellis=2 / 8x8dct=1 / cqm=0 / deadzone=21,11 / fast_pskip=0 / chroma_qp_offset=-3 / threads=12 / sliced_threads=0 / nr=0 / decimate=0 / interlaced=0 / bluray_compat=0 / constrained_intra=0 / bframes=9 / b_pyramid=2 / b_adapt=2 / b_bias=0 / direct=3 / weightb=1 / open_gop=0 / weightp=2 / keyint=250 / keyint_min=23 / scenecut=40 / intra_refresh=0 / rc_lookahead=40 / rc=2pass / mbtree=0 / bitrate=17000 / ratetol=1.0 / qcomp=0.60 / qpmin=0 / qpmax=69 / qpstep=4 / cplxblur=20.0 / qblur=0.5 / vbv_maxrate=50000 / vbv_bufsize=62500 / nal_hrd=none / ip_ratio=1.40 / pb_ratio=1.30 / aq=1:0.70
Default : Yes
Forced : No
Color range : Limited
Color primaries : BT.709
Transfer characteristics : BT.709
Matrix coefficients : BT.709

Audio #1
ID : 2
Format : AC-3
Format/Info : Audio Coding 3
Mode extension : CM (complete main)
Format settings, Endianness : Big
Codec ID : A_AC3
Duration : 2 h 27 min
Bit rate mode : Constant
Bit rate : 192 kb/s
Channel(s) : 2 channels
Channel positions : Front: L R
Sampling rate : 48.0 kHz
Frame rate : 31.250 FPS (1536 spf)
Bit depth : 16 bits
Compression mode : Lossy
Stream size : 202 MiB (1%)
Language : Ukrainian
Default : Yes
Forced : No

Audio #2
ID : 3
Format : AC-3
Format/Info : Audio Coding 3
Mode extension : CM (complete main)
Format settings, Endianness : Big
Codec ID : A_AC3
Duration : 2 h 27 min
Bit rate mode : Constant
Bit rate : 640 kb/s
Channel(s) : 6 channels
Channel positions : Front: L C R, Side: L R, LFE
Sampling rate : 48.0 kHz
Frame rate : 31.250 FPS (1536 spf)
Bit depth : 16 bits
Compression mode : Lossy
Stream size : 675 MiB (4%)
Default : No
Forced : No

Text #1
ID : 4
Format : UTF-8
Codec ID : S_TEXT/UTF8
Codec ID/Info : UTF-8 Plain Text
Duration : 2 h 16 min
Bit rate : 35 b/s
Count of elements : 1068
Stream size : 35.5 KiB (0%)
Title : English
Language : English
Default : No
Forced : No

Text #2
ID : 5
Format : UTF-8
Codec ID : S_TEXT/UTF8
Codec ID/Info : UTF-8 Plain Text
Duration : 1 h 7 min
Bit rate : 5 b/s
Count of elements : 90
Stream size : 2.60 KiB (0%)
Default : Yes
Forced : No

Menu
00:00:00.000 : en:00:00:00.000
00:18:06.294 : en:00:18:06.294
00:28:51.772 : en:00:28:51.772
00:35:14.696 : en:00:35:14.696
00:47:11.370 : en:00:47:11.370
01:02:52.477 : en:01:02:52.477
01:17:10.000 : en:01:17:10.000
01:27:22.571 : en:01:27:22.571
01:43:31.247 : en:01:43:31.247
01:59:15.565 : en:01:59:15.565
02:09:52.410 : en:02:09:52.410
02:17:55.058 : en:02:17:55.058
Скріншоти




Джерело: &
Особиста оцінка: 10 - без зайвих вагань рекомендую всім!


 Трекер:    Зареєстрований   

Завантажити / скачати фільм українською



відео для новачків



 Зареєстрований:   2017-06-23 20:38
 Розмір:   18.35 GB 
 Оцінка фільму:   10/10 (Голосів: 4)
   
Інші релізи
   Б'ютифул / Biutiful (2010) AVC Ukr/Spa | Sub Eng igor911  4 / 0   4.26 GB   2017-04-22 04:27 
   Б'ютифул / Biutiful (2010) 720p Ukr/Spa | Sub Eng igor911  5 / 0   9.95 GB   2017-04-22 02:13 
   Б'ютифул / Biutiful (2010) drop_plz  12 / 0   2.24 GB   2017-04-21 09:08 
Ваш часовий пояс: GMT + 2 Години

Нова тема   Відповісти