Де дракон? (Where's the Dragon?) / Long zai na li (2015) 720p

Нові коментарі

Нова тема   Відповісти
Автор Повідомлення
Anonymous 







2017-06-22 11:25  
Де дракон? / Where's the Dragon? / Long zai na li (2015) 720p

Де дракон? (Where's the Dragon?) / Long zai na li (2015) 720p


Жанр: анімація, пригодницький
Країна: Китай, Гонконг



Режисер: Сінг-Чунг Фу / Sing-Choong Foo, Бетті Тенг / Betty Tang
Ролі озвучують: Меггі Чіан / Maggie Chiang, Леон Дай / Leon Dai, Джастін Гартон / Justin Garton, Фіш Леонг / Fish Leong, Шао Чунь Цюй / Shao Chun Qu та інші

Сюжет:
Маленька дівчинка Дженет відправляється в захопливу, повну небезпек подорож до загадкової країни, де живуть знаки зодіаку. Їм загрожує страшна небезпека, адже сили зла задумали встановити там свій порядок. Дженет разом зі своїми новими друзями-тваринами, що представляють різні знаки зодіаку - повинні знайти спосіб врятувати світ від лиха, що насувається.
Офіційний український трейлер:


* багатоголосе озвучення у релізі відрізняється від кінотеатрального дубляжу цього трейлера

Вікова категорія: 6+
Тривалість: 01:33:05
Якість: 720p
Відео:
кодек:
розмір кадру: 1280 х 544
бітрейт: 2681 кб/с

Аудіо:
мова: українська
переклад: багатоголосий закадровий
кодек: 2.0 [стерео]
бітрейт: 192 кб/с
Info
Код:
Complete name               : Long zai na li (Where's the Dragon) (2015) [Ukr] 720p [Hurtom].
Format                      :
Format version              : Version 4 / Version 2
File size                   : 1.87 GiB
Duration                    : 1 h 33 min
Overall bit rate            : 2 875 kb/s
Movie name                  : Де дракон? / Where's the Dragon? / Long zai na li (2015) [Ukr] 720p [Hurtom]
Released date               : 2015
Cover                       : Yes
Comment                     : http://www.imdb.com/title/tt5119598/
Attachments                 : cover.jpg
ARTIST                      : Меггі Чіан / Maggie Chiang, Леон Дай / Leon Dai, Джастін Гартон / Justin Garton, Фіш Леонг / Fish Leong, Шао Чунь Цюй / Shao Chun Qu та інші
DIRECTOR                    : Сінг-Чунг Фу / Sing-Choong Foo, Бетті Тенг / Betty Tang
GENRE                       : анімація, пригодницький, сімейний
SYNOPSIS                    : Маленька дівчинка Дженет відправляється в захопливу, повну небезпек подорож до загадкової країни, де живуть знаки зодіаку. Їм загрожує страшна небезпека, адже сили зла задумали встановити там свій порядок. Дженет разом зі своїми новими друзями-тваринами, що представляють різні знаки зодіаку - повинні знайти спосіб врятувати світ від лиха, що насувається.
Url                         : https://toloka.to/t82527

Video
ID                          : 1
Format                      : AVC
Format/Info                 : Advanced Video Codec
Format profile              : [email protected]
Format settings, CABAC      : Yes
Format settings, ReFrames   : 2 frames
Codec ID                    : V_MPEG4/ISO/AVC
Duration                    : 1 h 33 min
Bit rate                    : 2 681 kb/s
Width                       : 1 280 pixels
Height                      : 544 pixels
Display aspect ratio        : 2.35:1
Frame rate mode             : Constant
Frame rate                  : 25.000 FPS
Color space                 : YUV
Chroma subsampling          : 4:2:0
Bit depth                   : 8 bits
Scan type                   : Progressive
Bits/(Pixel*Frame)          : 0.154
Stream size                 : 1.74 GiB (93%)
Title                       : Де дракон? / Where's the Dragon? / Long zai na li (2015) 720p
Language                    : Chinese
Default                     : Yes
Forced                      : No
Color range                 : Limited
Color primaries             : BT.709
Transfer characteristics    : BT.709
Matrix coefficients         : BT.709

Audio
ID                          : 2
Format                      : AC-3
Format/Info                 : Audio Coding 3
Format settings, Endianness : Big
Codec ID                    : A_AC3
Duration                    : 1 h 33 min
Bit rate mode               : Constant
Bit rate                    : 192 kb/s
Channel(s)                  : 2 channels
Channel positions           : Front: L R
Sampling rate               : 48.0 kHz
Frame rate                  : 31.250 FPS (1536 spf)
Bit depth                   : 16 bits
Compression mode            : Lossy
Stream size                 : 128 MiB (7%)
Title                       : MVO [Volya Cine+ Kids] 2.0 [stereo] 192 Kbps [Hurtom-Electroz, Sando7]
Language                    : Ukrainian
Service kind                : Complete Main
Default                     : Yes
Forced                      : No


Джерело: &
Подяка Electroz'у та Sando7 за український звук

* фільм був (чи мав бути?) у обмеженому прокаті від компанії "Каскад Україна" з 17.11.2016.
** оригінальна доріжка була відсутня у вільному доступі на момент створення релізу.


 Трекер:    Зареєстрований   

Завантажити / скачати мультфільм українською



відео для новачків



 Зареєстрований:   2017-06-22 18:05
 Розмір:   1.87 GB 
 Оцінка мультфільму:   3.9/10 (Голосів: 15)
   
Інші релізи
   Де дракон? (Where's the Dragon?) / Long zai na li (2015) Electroz  10 / 0   1.37 GB   2017-06-21 12:03 
Ваш часовий пояс: GMT + 2 Години

Нова тема   Відповісти