Старі леви / Secondhand Lions (2003) 1080p Ukr/Eng | Sub Eng

Нові коментарі

Нова тема   Відповісти
Автор Повідомлення
IronBee 
Свій


З нами з: 08.02.10
Востаннє: 24.08.17
Повідомлень: 61

2017-06-21 13:13  
Старі леви / Secondhand Lions (2003) 1080p Ukr/Eng | Sub Eng

Старі леви / Secondhand Lions (2003) 1080p Ukr/Eng | Sub Eng
Альтернативний постер:



Жанр: сімейний, комедія, драма
Країна: США



Кінокомпанія: New Line Cinema, David Kirschner Productions, Digital Domain
Режисер: Тім МакКенліс (Tim McCanlies)
Актори: Майкл Кейн (Michael Caine), Роберт Дюваль (Robert Duvall), Гейлі Джоель Осмент (Haley Joel Osment), Кіра Седвік (Kyra Sedgwick), Ніккі Кет (Nicky Katt), Джош Лукас (Josh Lucas), Ерік Бальфор (Eric Balfour), Емануель Воґер (Emmanuelle Vaugier) та інші.

Сюжет:
Малого і невпевненого в собі хлопця Волтера мати Мей (жіночка вертлявої натури) привозить до двох старих дядьків. Вони не дуже раді цьому візиту, оскільки живуть майже як відлюдники. Ходять чутки, що старі ветерани приховують величезні статки (купу грошей). Мей дає Волтеру завдання дізнатися, де вони їх ховають, очевидно, щоб потім привласнити. Але події розгортаються в іншому руслі...


Тривалість: 01:49:09
Якість: 1080p
Відео:
кодек:
розмір кадру: 1920 х 1032
бітрейт: 9778 kb/s

Аудіо # 1:
мова: українська
переклад: любительський одноголосий закадровий (Mister rock)
кодек: 5.1
бітрейт: 448 кб/с

Аудіо # 2:
мова: англійська
переклад: оригінал
кодек: 5.1
бітрейт: 640 кб/с

Аудіо # 3:
мова: англійська
переклад: оригінал (коментарі режисера)
кодек: 2.0
бітрейт: 192 кб/с

Субтитри:
мова: англійська
тип: програмні (м'які)
формат: *.srt
Info
General
Unique ID : 176653474445514704786673394920036555798 (0x84E638BC2F357971B040AB11DD5CDC16)
Complete name : D:\Films\Старі леви Secondhand Lions (2003) 1080p UkrEng [Hurtom] .
Format :
Format version : Version 4 / Version 2
File size : 8.43 GiB
Duration : 1 h 49 min
Overall bit rate : 11.1 Mb/s
Movie name : Secondhand Lions (2003) [1080p] (Release for NNM-Club.ru)
Encoded date : UTC 2017-06-21 09:22:08
Writing application : mkvmerge v12.0.0 ('Trust / Lust') 64bit
Writing library : libebml v1.3.4 + libmatroska v1.4.5

Video
ID : 1
Format : AVC
Format/Info : Advanced Video Codec
Format profile : High@L4
Format settings, CABAC : Yes
Format settings, ReFrames : 4 frames
Codec ID : V_MPEG4/ISO/AVC
Duration : 1 h 49 min
Bit rate : 9 778 kb/s
Width : 1 920 pixels
Height : 1 032 pixels
Display aspect ratio : 1.85:1
Frame rate mode : Constant
Frame rate : 23.976 (24000/1001) FPS
Color space : YUV
Chroma subsampling : 4:2:0
Bit depth : 8 bits
Scan type : Progressive
Bits/(Pixel*Frame) : 0.206
Stream size : 7.45 GiB (88%)
Title : Secondhand Lions (2003) [1080p]
Writing library : core 79 r1347 5ddd61b
Encoding settings : cabac=1 / ref=4 / deblock=1:0:0 / analyse=0x3:0x113 / me=umh / subme=7 / psy=1 / psy_rd=1.0:0.0 / mixed_ref=1 / me_range=16 / chroma_me=1 / trellis=1 / 8x8dct=1 / cqm=0 / deadzone=21,11 / chroma_qp_offset=-2 / threads=12 / nr=0 / decimate=1 / mbaff=0 / constrained_intra=0 / bframes=3 / b_pyramid=0 / b_adapt=1 / b_bias=0 / direct=1 / wpredb=1 / wpredp=2 / keyint=250 / keyint_min=25 / scenecut=40 / rc_lookahead=40 / rc=2pass / mbtree=1 / bitrate=9778 / ratetol=1.0 / qcomp=0.60 / qpmin=10 / qpmax=51 / qpstep=4 / cplxblur=20.0 / qblur=0.5 / ip_ratio=1.40 / aq=1:1.00
Language : English
Default : Yes
Forced : No

Audio #1
ID : 2
Format : AC-3
Format/Info : Audio Coding 3
Mode extension : CM (complete main)
Format settings, Endianness : Big
Codec ID : A_AC3
Duration : 1 h 49 min
Bit rate mode : Constant
Bit rate : 448 kb/s
Channel(s) : 6 channels
Channel positions : Front: L C R, Side: L R, LFE
Sampling rate : 48.0 kHz
Frame rate : 31.250 FPS (1536 spf)
Bit depth : 16 bits
Compression mode : Lossy
Stream size : 350 MiB (4%)
Default : Yes
Forced : No

Audio #2
ID : 3
Format : AC-3
Format/Info : Audio Coding 3
Mode extension : CM (complete main)
Format settings, Endianness : Big
Codec ID : A_AC3
Duration : 1 h 49 min
Bit rate mode : Constant
Bit rate : 640 kb/s
Channel(s) : 6 channels
Channel positions : Front: L C R, Side: L R, LFE
Sampling rate : 48.0 kHz
Frame rate : 31.250 FPS (1536 spf)
Bit depth : 16 bits
Compression mode : Lossy
Stream size : 500 MiB (6%)
Title : ENG.ORIG.AC-3 5.1 ~640 kbps
Language : English
Default : No
Forced : No

Audio #3
ID : 4
Format : AC-3
Format/Info : Audio Coding 3
Format profile : Dolby Digital
Mode extension : CM (complete main)
Format settings, Endianness : Big
Codec ID : A_AC3
Duration : 1 h 49 min
Bit rate mode : Constant
Bit rate : 192 kb/s
Channel(s) : 2 channels
Channel positions : Front: L R
Sampling rate : 48.0 kHz
Frame rate : 31.250 FPS (1536 spf)
Bit depth : 16 bits
Compression mode : Lossy
Stream size : 150 MiB (2%)
Title : Director's Commentary AC-3 2.0 ~192 kbps
Language : English
Default : No
Forced : No

Text
ID : 5
Format : UTF-8
Codec ID : S_TEXT/UTF8
Codec ID/Info : UTF-8 Plain Text
Duration : 1 h 48 min
Bit rate : 52 b/s
Count of elements : 1290
Stream size : 41.7 KiB (0%)
Title : ENG.SUB
Language : English
Default : No
Forced : No

Menu
00:00:00.000 : en:00:00:00.000
00:04:49.539 : en:00:04:49.539
00:10:06.981 : en:00:10:06.981
00:15:01.025 : en:00:15:01.025
00:19:39.678 : en:00:19:39.678
00:23:06.135 : en:00:23:06.135
00:26:47.815 : en:00:26:47.815
00:33:04.107 : en:00:33:04.107
00:36:22.472 : en:00:36:22.472
00:41:47.046 : en:00:41:47.046
00:47:46.655 : en:00:47:46.655
00:52:58.258 : en:00:52:58.258
00:57:51.134 : en:00:57:51.134
01:06:18.141 : en:01:06:18.141
01:14:35.471 : en:01:14:35.471
01:18:08.851 : en:01:18:08.851
01:22:55.220 : en:01:22:55.220
01:26:44.783 : en:01:26:44.783
01:30:54.741 : en:01:30:54.741
01:36:28.783 : en:01:36:28.783
01:42:15.629 : en:01:42:15.629
Скріншоти




Джерело: &
Особиста оцінка: 10 - без зайвих вагань рекомендую всім!


Золотий реліз (завантажене не впливає на рейтинг)
 Трекер:    Зареєстрований   

Завантажити / скачати фільм українською



відео для новачків



 Зареєстрований:   2017-06-21 13:13
 Розмір:   8.43 GB 
 Оцінка фільму:   8.9/10 (Голосів: 7)
   
Інші релізи
   Старі леви / Secondhand Lions (2003) 720p Ukr/Eng | Sub Ukr/Eng Віктор  3 / 0   4.71 GB   2011-05-30 16:42 
   Старі леви / Secondhand lions (2003) Mister rock  8 / 0   1.84 GB   2011-01-17 16:57 
   Старі леви / Secondhand lions (2003) Mister rock  3 / 0   1.69 GB   2010-11-14 13:06 
igor911 
Відео Гуртом
Відео Гуртом


З нами з: 18.01.08
Востаннє: 24.08.17
Повідомлень: 7349

2017-06-22 00:03  
Зауваження до релізу: чому не додали українські субтитри? Якщо вони є в сусідніх релізах, то їх можна шукати в папці SUBTITLES UKR на сервері доріжок або брати з самого релізу. В даному випадку вони є на сервері.
rosinant 
Новенький


З нами з: 18.04.17
Востаннє: 24.08.17
Повідомлень: 24

2017-06-25 16:37  
Зробив постер
постер

Oleksa9 
Поважний учасник


З нами з: 17.05.12
Востаннє: 24.08.17
Повідомлень: 241

2017-08-09 21:26  
Відмінне кіно!! Раджу переглянути.
Ваш часовий пояс: GMT + 2 Години

Нова тема   Відповісти