Безмозкі (Сезон 1, Серія 1) / BrainDead (Season 1, Episode 1) (2016) AVC Eng | sub Ukr

Нові коментарі

Нова тема   Відповісти
Автор Повідомлення
pskrm 
Новенький


З нами з: 04.03.17
Востаннє: 23.08.17
Повідомлень: 11

2017-06-20 23:42  
Безмозкі (Сезон 1, Серія 1) / BrainDead (Season 1, Episode 1) (2016) AVC Eng | sub Ukr

Безмозкі (Сезон 1, Серія 1) / BrainDead (Season 1, Episode 1) (2016) AVC Eng | sub Ukr


Жанр: драма, комедія, жахи
Країна: США



Кінокомпанія: CBS
Режисер: Аллан Аркуш, Фелікс Алькала, Брук Кеннеді
Актори: Мері Елізабет Вінстед, Денні Піно, Аарон Твейт

Сюжет:
Дії серіалу відбуваються у Вашингтоні, де інопланетні комахи з челябінського метеориту починають заражати членів Конгресу.
Перелік серій

01. The Insanity Principle: How Extremism in Politics isThreatening Democracy in the 21st Century / Принцип нерозсудливості або як у 21-му столітті екстремізм у політиці загрожує демократії
Тривалість: 00:40:00
Якість:
Відео:
кодек:
розмір кадру: 1280 х 720
бітрейт: 1132 кб/с

Аудіо:
мова: англійська
переклад: оригінал
кодек: 2.0
бітрейт: 166 кб/с

Субтитри:
мова: українська
тип: програмні (м'які)
формат: *.srt

Субтитри :власний переклад
Info

General
Complete name : /media/django/A4F1874E923E5014/ProSub/BrainDead/subbed/BrainDead/BrainDead.s01e01.mp4
Format : MPEG-4
Format profile : Base Media
Codec ID : isom (isom/iso2/avc1/mp41)
File size : 355 MiB
Duration : 1h 2mn
Overall bit rate mode : Variable
Overall bit rate : 2 317 Kbps
Movie name : American.Gods.S01E01.720p..-DEFLATE[ettv]
Encoded date : UTC 1904-01-01 00:00:00
Tagged date : UTC 1904-01-01 00:00:00
Writing application : Lavf56.40.101

Video
ID : 1
Format : AVC
Format/Info : Advanced Video Codec
Format profile : [email protected]
Format settings, CABAC : Yes
Format settings, ReFrames : 4 frames
Codec ID : avc1
Codec ID/Info : Advanced Video Coding
Duration : 43mn
Bit rate : 2 144 Kbps
Width : 1 280 pixels
Height : 720 pixels
Display aspect ratio : 16:9
Frame rate mode : Variable
Frame rate : 23.976 (24000/1001) fps
Minimum frame rate : 23.810 fps
Maximum frame rate : 24.390 fps
Color space : YUV
Chroma subsampling : 4:2:0
Bit depth : 8 bits
Scan type : Progressive
Bits/(Pixel*Frame) : 0.097
Stream size : 314 MiB (93%)
Writing library : core 148 r2643 5c65704
Encoding settings : cabac=1 / ref=1 / deblock=1:0:0 / analyse=0x1:0x111 / me=hex / subme=2 / psy=1 / psy_rd=1,00:0,00 / mixed_ref=0 / me_range=16 / chroma_me=1 / trellis=0 / 8x8dct=0 / cqm=0 / deadzone=21,11 / fast_pskip=1 / chroma_qp_offset=0 / threads=3 / lookahead_threads=1 / sliced_threads=0 / nr=0 / decimate=1 / interlaced=0 / bluray_compat=0 / constrained_intra=0 / bframes=3 / b_pyramid=2 / b_adapt=1 / b_bias=0 / direct=1 / weightb=1 / open_gop=0 / weightp=1 / keyint=240 / keyint_min=24 / scenecut=40 / intra_refresh=0 / rc_lookahead=10 / rc=crf / mbtree=1 / crf=20,0 / qcomp=0,60 / qpmin=0 / qpmax=69 / qpstep=4 / vbv_maxrate=20000 / vbv_bufsize=25000 / crf_max=0,0 / nal_hrd=none / filler=0 / ip_ratio=1,40 / aq=1:1,00
Encoded date : UTC 1904-01-01 00:00:00
Tagged date : UTC 1904-01-01 00:00:00
Color range : Limited
Color primaries : BT.709
Transfer characteristics : BT.709
Matrix coefficients : BT.709

Audio
ID : 2
Format :
Format/Info : Advanced Audio Codec
Format profile : LC
Codec ID : 40
Duration : 43mn
Duration_LastFrame : 21ms
Bit rate mode : Constant
Bit rate : 167 Kbps
Channel(s) : 2 channels
Channel positions : Front: L R
Sampling rate : 48.0 KHz
Frame rate : 46.875 fps (1024 spf)
Compression mode : Lossy
Stream size : 43.9 MiB (7%)
Language : English
Default : Yes
Alternate group : 1
Encoded date : UTC 1904-01-01 00:00:00
Tagged date : UTC 1904-01-01 00:00:00

Text
ID : 3
Format : Timed Text
Muxing mode : sbtl
Codec ID : tx3g
Duration :43mn
Bit rate mode : Variable
Bit rate : 81 bps
Stream size : 37.4 KiB (0%)
Language : Ukrainian
Default : Yes
Forced : No
Alternate group : 3
Encoded date : UTC 1904-01-01 00:00:00
Tagged date : UTC 1904-01-01 00:00:00
Скріншоти


Джерело: &
Особиста оцінка: 8 - мені сподобалося


Золотий реліз (завантажене не впливає на рейтинг)
 Трекер:    Зареєстрований   

Завантажити / скачати серіал українською



відео для новачків



 Зареєстрований:   2017-06-20 23:42
 Розмір:   356 MB 
 Оцінка серіалу:   10/10 (Голосів: 5)
   
leicheman 
Відео Гуртом - підтримка та поширення
Відео Гуртом - підтримка та поширення


З нами з: 03.07.14
Востаннє: 24.08.17
Повідомлень: 1055

2017-06-21 00:23  
Візьміть кращий ріп, а то цей "кастрований".
_hellisa 
Свій


З нами з: 26.02.17
Востаннє: 24.08.17
Повідомлень: 53

2017-06-21 08:41  
Додано 1-шу серію!

Уже помітила пару проґавлених одруківок, тому, якщо при перегляді побачите ще, напишіть, будь ласка, в коментарях де саме, оновимо.

GoDLiKeR20 
Частий відвідувач


З нами з: 21.06.13
Востаннє: 24.08.17
Повідомлень: 31

2017-06-21 10:34  
Класний серіал)))
Ваш часовий пояс: GMT + 2 Години

Нова тема   Відповісти