Безмозкі (Сезон 1, Серії 1-2) / BrainDead (Season 1, Episodes 1-2) (2016) 720p Eng | sub Ukr

Нові коментарі

Нова тема   Відповісти
Останній раз роздавалося kubis (2018-06-20)
Автор Повідомлення
pskrm 
Свій


З нами з: 04.03.17
Востаннє: 20.06.18
Повідомлень: 55

2017-06-20 23:42  
Безмозкі (Сезон 1, Серії 1-2) / BrainDead (Season 1, Episodes 1-2) (2016) 720p Eng | sub Ukr

Безмозкі (Сезон 1, Серії 1-2) / BrainDead (Season 1, Episodes 1-2) (2016) 720p Eng | sub Ukr


Жанр: драма, комедія, жахи
Країна: США



Кінокомпанія: CBS
Режисер: Аллан Аркуш, Фелікс Алькала, Брук Кеннеді
Актори: Мері Елізабет Вінстед, Денні Піно, Аарон Твейт

Сюжет:
Дії серіалу відбуваються у Вашингтоні, де інопланетні комахи з челябінського метеориту починають заражати членів Конгресу.
Перелік серій

01. The Insanity Principle: How Extremism in Politics isThreatening Democracy in the 21st Century / Принцип нерозсудливості або як у 21-му столітті екстремізм у політиці загрожує демократії
02. Playing Politics: Living Life in the Shadow of the Budget Showdown - A Critique / Політичні ігри або життя в тіні боротьби за бюджет (критичний аналіз)
Тривалість: 00:40:00
Якість:
Відео:
кодек:
розмір кадру: 1280 х 720
бітрейт: 1132 кб/с

Аудіо:
мова: англійська
переклад: оригінал
кодек: 2.0
бітрейт: 166 кб/с

Субтитри:
мова: українська
тип: програмні (м'які)
формат: *.srt

Субтитри :власний переклад
Info

General
Complete name : C:\Users\John\Downloads\BrainDead\BrainDead.s01e01.mp4
Format : MPEG-4
Format profile : Base Media
Codec ID : isom (isom/iso2/avc1/mp41)
File size : 356 MiB
Duration : 43 min 39 s
Overall bit rate mode : Variable
Overall bit rate : 1 139 kb/s
Movie name : Braindead.S01E01.720p.HDTV.x265.ShAaNiG
Writing application : Lavf56.40.101

Video
ID : 1
Format : AVC
Format/Info : Advanced Video Codec
Format profile : [email protected]
Format settings : CABAC / 4 Ref Frames
Format settings, CABAC : Yes
Format settings, RefFrames : 4 frames
Codec ID : avc1
Codec ID/Info : Advanced Video Coding
Duration : 43 min 39 s
Bit rate : 966 kb/s
Width : 1 280 pixels
Height : 720 pixels
Display aspect ratio : 16:9
Frame rate mode : Variable
Frame rate : 23.976 FPS
Minimum frame rate : 23.810 FPS
Maximum frame rate : 24.390 FPS
Color space : YUV
Chroma subsampling : 4:2:0
Bit depth : 8 bits
Scan type : Progressive
Bits/(Pixel*Frame) : 0.044
Stream size : 302 MiB (85%)
Writing library : core 148 r2643 5c65704
Encoding settings : cabac=1 / ref=1 / deblock=1:0:0 / analyse=0x1:0x111 / me=hex / subme=2 / psy=1 / psy_rd=1,00:0,00 / mixed_ref=0 / me_range=16 / chroma_me=1 / trellis=0 / 8x8dct=0 / cqm=0 / deadzone=21,11 / fast_pskip=1 / chroma_qp_offset=0 / threads=3 / lookahead_threads=1 / sliced_threads=0 / nr=0 / decimate=1 / interlaced=0 / bluray_compat=0 / constrained_intra=0 / bframes=3 / b_pyramid=2 / b_adapt=1 / b_bias=0 / direct=1 / weightb=1 / open_gop=0 / weightp=1 / keyint=240 / keyint_min=24 / scenecut=40 / intra_refresh=0 / rc_lookahead=10 / rc=crf / mbtree=1 / crf=20,0 / qcomp=0,60 / qpmin=0 / qpmax=69 / qpstep=4 / vbv_maxrate=20000 / vbv_bufsize=25000 / crf_max=0,0 / nal_hrd=none / filler=0 / ip_ratio=1,40 / aq=1:1,00
Color range : Limited
Color primaries : BT.709
Transfer characteristics : BT.709
Matrix coefficients : BT.709

Audio
ID : 2
Format :
Format/Info : Advanced Audio Codec
Format profile : LC
Codec ID : mp4a-40-2
Duration : 43 min 39 s
Duration_LastFrame : 21 ms
Bit rate mode : Constant
Bit rate : 166 kb/s
Channel(s) : 2 channels
Channel positions : Front: L R
Sampling rate : 48.0 kHz
Frame rate : 46.875 FPS (1024 SPF)
Compression mode : Lossy
Stream size : 51.9 MiB (15%)
Default : Yes
Alternate group : 1

Text
ID : 3
Format : Timed Text
Muxing mode : sbtl
Codec ID : tx3g
Duration : 43 min 39 s
Bit rate mode : Variable
Bit rate : 150 b/s
Stream size : 47.8 KiB (0%)
Language : Ukrainian
Default : Yes
Forced : No
Alternate group : 3
Скріншоти


Джерело: &
Особиста оцінка: 8 - мені сподобалося


Золотий реліз (завантажене не впливає на рейтинг)
 Трекер:    Зареєстрований   

Завантажити / скачати серіал українською



відео для новачків



 Зареєстрований:   2018-02-01 09:35
 Розмір:   665 MB 
 Оцінка серіалу:   10/10 (Голосів: 7)
   
leicheman 
Відео Гуртом - підтримка та поширення
Відео Гуртом - підтримка та поширення


З нами з: 03.07.14
Востаннє: 20.06.18
Повідомлень: 2335

2017-06-21 00:23  
Візьміть кращий ріп, а то цей "кастрований".
_hellisa 
Свій


З нами з: 26.02.17
Востаннє: 19.06.18
Повідомлень: 98

2017-06-21 08:41  
Додано 1-шу серію!

Уже помітила пару проґавлених одруківок, тому, якщо при перегляді побачите ще, напишіть, будь ласка, в коментарях де саме, оновимо.

GoDLiKeR20 
Свій


З нами з: 21.06.13
Востаннє: 20.06.18
Повідомлень: 54

2017-06-21 10:34  
Класний серіал)))
pskrm 
Свій


З нами з: 04.03.17
Востаннє: 20.06.18
Повідомлень: 55

2018-02-01 09:37  
Реліз оновлено!

Додано 2 серію!

igor911 
Відео Гуртом
Відео Гуртом


З нами з: 18.01.08
Востаннє: 20.06.18
Повідомлень: 10310

2018-02-01 10:01  
pskrm написано:
Movie name : American.Gods.S01E01.720p..-DEFLATE[ettv]

замініть медіаінфо на справжнє.

casper101 
VIP


З нами з: 03.12.09
Востаннє: 17.06.18
Повідомлень: 313

2018-02-01 13:20  
а чого не мертві мізки ??? Tongue out (1)
nickimax 
Новенький


З нами з: 26.08.11
Востаннє: 20.06.18
Повідомлень: 13

2018-02-24 22:19  
Буде продовження?
_hellisa 
Свій


З нами з: 26.02.17
Востаннє: 19.06.18
Повідомлень: 98

2018-02-24 22:37  
nickimax
Так, потрібно трохи часу, тому що над серіалом працює один перекладач.

Electroz 
Відео Гуртом - підтримка та поширення
Відео Гуртом - підтримка та поширення


З нами з: 18.09.14
Востаннє: 20.06.18
Повідомлень: 2762

2018-02-24 22:42  
pskrm написано:
AVC

Виправте в заголовку на 720p.

igor911 
Відео Гуртом
Відео Гуртом


З нами з: 18.01.08
Востаннє: 20.06.18
Повідомлень: 10310

2018-02-24 22:55  
виправив
Ваш часовий пояс: GMT + 2 Години

Нова тема   Відповісти