Калеб / Caleb (2015) 1080p Ukr/Eng | Sub Ukr/Eng

Нові коментарі

Нова тема   Відповісти
Автор Повідомлення
wolesj 
VIP


З нами з: 15.07.12
Востаннє: 11.12.17
Повідомлень: 470

2017-06-20 18:33  
Калеб / Caleb (2015) 1080p Ukr/Eng | Sub Ukr/Eng

Додатковий постер:

Жанр: драма, фантастика
Країна: Велика Британія



Кінокомпанія: Randomcat Pictures & Feature One
Режисери: Аманда Мезайкос, Сюзен Айхеле
Актори: Марк Фрост, Елізабет Гілі, Джеймс Голл, Вільям Голл

Сюжет:
В школі малого Калеба ображають хулігани, а вдома на нього не звертають увагу вічно заклопотані батьки. Калеб вирішує створити собі брата...


Тривалість: 00:15:08
Якість:
Відео:
кодек:
розмір кадру: 1920x960
бітрейт: 2 451 Кбіт/сек

Аудіо1:
мова: українська
переклад: двоголосий закадровий
кодек: 2.0
бітрейт: 196 Кбіт/сек
Аудіо:
мова: англійська
переклад: оригінал
кодек: 2.0
бітрейт: 256 Кбіт/сек

Субтитри:
мова: українська (переклад wolesj)
тип: програмні (м'які)
формат: *.ass

Субтитри:
мова: англійська
тип: програмні (м'які)
формат: *.srt
Info:

Format :
Format version : Version 4 / Version 2
File size : 315 MiB
Duration : 15mn 9s
Overall bit rate : 2 903 Kbps
Encoded date : UTC 2017-11-27 18:03:13
Writing application : mkvmerge v8.0.0 ('Til The Day That I Die') 64bit
Writing library : libebml v1.3.1 + libmatroska v1.4.2

Video
ID : 1
Format : AVC
Format/Info : Advanced Video Codec
Format profile : [email protected]
Format settings, CABAC : Yes
Format settings, ReFrames : 4 frames
Codec ID : V_MPEG4/ISO/AVC
Duration : 15mn 8s
Bit rate : 2 451 Kbps
Width : 1 920 pixels
Height : 960 pixels
Display aspect ratio : 2.000
Frame rate mode : Constant
Frame rate : 25.000 fps
Color space : YUV
Chroma subsampling : 4:2:0
Bit depth : 8 bits
Scan type : Progressive
Bits/(Pixel*Frame) : 0.053
Stream size : 265 MiB (84%)
Writing library : core 148 r10 90a61ec
Encoding settings : cabac=1 / ref=4 / deblock=1:0:0 / analyse=0x3:0x113 / me=hex / subme=8 / psy=1 / psy_rd=1.00:0.00 / mixed_ref=1 / me_range=16 / chroma_me=1 / trellis=2 / 8x8dct=1 / cqm=0 / deadzone=21,11 / fast_pskip=1 / chroma_qp_offset=-2 / threads=30 / lookahead_threads=5 / sliced_threads=0 / nr=0 / decimate=1 / interlaced=0 / bluray_compat=0 / stitchable=1 / constrained_intra=0 / bframes=3 / b_pyramid=2 / b_adapt=1 / b_bias=0 / direct=3 / weightb=1 / open_gop=0 / weightp=2 / keyint=infinite / keyint_min=25 / scenecut=40 / intra_refresh=0 / rc_lookahead=50 / rc=crf / mbtree=1 / crf=20.0 / qcomp=0.60 / qpmin=5 / qpmax=69 / qpstep=4 / vbv_maxrate=4950 / vbv_bufsize=13500 / crf_max=0.0 / nal_hrd=none / filler=0 / ip_ratio=1.40 / aq=1:1.00
Default : Yes
Forced : No
Color range : Limited
Color primaries : BT.709
Transfer characteristics : BT.709
Matrix coefficients : BT.709

Audio #1
ID : 2
Format :
Format/Info : Advanced Audio Codec
Format profile : LC
Codec ID : A_AAC
Duration : 15mn 9s
Bit rate : 196 Kbps
Channel(s) : 2 channels
Channel positions : Front: L R
Sampling rate : 48.0 KHz
Frame rate : 46.875 fps (1024 spf)
Compression mode : Lossy
Stream size : 21.3 MiB (7%)
Title : Artymko&Grey
Language : Ukrainian
Default : Yes
Forced : Yes

Audio #2
ID : 3
Format :
Format/Info : Advanced Audio Codec
Format profile : LC
Codec ID : A_AAC
Duration : 15mn 8s
Bit rate : 256 Kbps
Channel(s) : 2 channels
Channel positions : Front: L R
Sampling rate : 48.0 KHz
Frame rate : 46.875 fps (1024 spf)
Compression mode : Lossy
Stream size : 27.7 MiB (9%)
Language : English
Default : No
Forced : No

Text #1
ID : 4
Format : ASS
Codec ID : S_TEXT/ASS
Codec ID/Info : Advanced Sub Station Alpha
Duration : 14mn 17s
Bit rate : 124 bps
Count of elements : 210
Compression mode : Lossless
Stream size : 13.0 KiB (0%)
Title : українська
Default : No
Forced : No

Text #2
ID : 5
Format : UTF-8
Codec ID : S_TEXT/UTF8
Codec ID/Info : UTF-8 Plain Text
Duration : 14mn 12s
Bit rate : 54 bps
Count of elements : 169
Stream size : 5.64 KiB (0%)
Title : English
Default : No
Forced : No
Скріншоти:


Ролі озвучували: Дядько Грей, Artymko
Робота зі звуком: Дядько Грей
Постер: SigridMarialer

Джерело: vimeo і «Робота Голосом»
Особиста оцінка: 9.
ДЯКУЮ ЗА ПІДТРИМКУ РОЗДАЧІ!




Золотий реліз (завантажене не впливає на рейтинг)
 Трекер:    Зареєстрований   

Завантажити / скачати фільм українською



відео для новачків



 Зареєстрований:   2017-11-27 20:48
 Розмір:   315 MB 
 Оцінка фільму:   9.7/10 (Голосів: 3)
   
wolesj 
VIP


З нами з: 15.07.12
Востаннє: 11.12.17
Повідомлень: 470

2017-11-27 20:54  
Реліз оновлено!


Озвучення та постер від команди «Робота Голосом»


bot 
робот


З нами з: 30.09.07
Востаннє: 26.05.05
Повідомлень: 17891

2017-11-27 20:55  
Тему перенесено з Короткометражні до форуму Короткометражні


wolesj

Ваш часовий пояс: GMT + 2 Години

Нова тема   Відповісти