NordWitch - Mørk Profeti (Japanese Edition) (2017) [FLAC] | Black / Death Metal

Нові коментарі

Нова тема   Відповісти
Автор Повідомлення
kolpavel 
VIP


З нами з: 04.05.14
Востаннє: 23.06.17
Повідомлень: 1144

2017-06-19 21:54  
NordWitch - Mørk Profeti (Japanese Edition) (2017) [FLAC] | Black / Death Metal

NordWitch - Mørk Profeti (Japanese Edition) (2017) [FLAC] | Black / Death Metal


Стиль: Black Death Metal
Країна, місто: Україна, Київ
Видавець: Spiritual Beast Co., Ltd. (Каталог ID: IUCP-16264)

Виконавці:
Masha - вокал
Donets Stepan - барабани
Max Senchilo - бас
Max - гiтара
Leo - гiтара

Пісні:
    01. Arising of Nocturnal Fog (Bonus Track) - 01:23
    02. Dominion - 05:25
    03. Walker from the Shade - 04:35
    04. Lady Evil - 04:46
    05. The Call to an Ancient Evil - 05:24
    06. To Nord Gods - 04:55
    07. Mørk Profeti - 02:55
    08. No Regret - 05:17
    09. Messiah of Death - 05:08
    10. Darknet Storm (Bonus Track) - 02:33

Тривалість: 00:42:22
Мова: англiйська
Аудіо-кодек: FLAC
Бітрейт: 919 кб/с
Джерело: трекер
Додаткова інформація:
Лог якостi
Exact Audio Copy V1.3 from 2. September 2016

EAC extraction logfile from 23. May 2017, 13:53

Nordwitch / Mork Profeti

Used drive : ATAPI iHAS122 W Adapter: 2 ID: 0

Read mode : Secure
Utilize accurate stream : Yes
Defeat audio cache : Yes
Make use of C2 pointers : No

Read offset correction : 48
Overread into Lead-In and Lead-Out : No
Fill up missing offset samples with silence : Yes
Delete leading and trailing silent blocks : No
Null samples used in CRC calculations : Yes
Used interface : Installed external ASPI interface

Used output format : User Defined Encoder
Selected bitrate : 1024 kBit/s
Quality : High
Add ID3 tag : No
Command line compressor : C:\Program Files\FLAC\flac.exe
Additional command line options : -V -8 -T "Date=%year%" -T "Genre=%genre%" -T"COMMENT=Ripped by Ilijan - ilko" -8 -V %source%

TOC of the extracted CD

Track | Start | Length | Start sector | End sector
---------------------------------------------------------
1 | 0:00.00 | 1:23.14 | 0 | 6238
2 | 1:23.14 | 5:25.00 | 6239 | 30613
3 | 6:48.14 | 4:35.10 | 30614 | 51248
4 | 11:23.24 | 4:46.10 | 51249 | 72708
5 | 16:09.34 | 5:24.10 | 72709 | 97018
6 | 21:33.44 | 4:55.10 | 97019 | 119153
7 | 26:28.54 | 2:55.10 | 119154 | 132288
8 | 29:23.64 | 5:17.10 | 132289 | 156073
9 | 34:40.74 | 5:08.02 | 156074 | 179175
10 | 39:49.01 | 2:33.10 | 179176 | 190660

Range status and errors

Selected range

Filename D:\ilko\Nordwitch - Mork Profeti.wav

Peak level 94.7 %
Extraction speed 3.7 X
Range quality 99.9 %
Test CRC 2E621A63
Copy CRC 2E621A63
Copy OK

No errors occurred

AccurateRip summary

Track 1 not present in database
Track 2 not present in database
Track 3 not present in database
Track 4 not present in database
Track 5 not present in database
Track 6 not present in database
Track 7 not present in database
Track 8 not present in database
Track 9 not present in database
Track 10 not present in database

None of the tracks are present in the AccurateRip database

End of status report

---- CUETools DB Plugin V2.1.6

[CTDB TOCID: 5YB3Y7.OUcfpV3J1fiVzKPpcZxQ-] found
Submit result: 5YB3Y7.OUcfpV3J1fiVzKPpcZxQ- has been confirmed
Track | CTDB Status
1 | (1/1) Accurately ripped
2 | (1/1) Accurately ripped
3 | (1/1) Accurately ripped
4 | (1/1) Accurately ripped
5 | (1/1) Accurately ripped
6 | (1/1) Accurately ripped
7 | (1/1) Accurately ripped
8 | (1/1) Accurately ripped
9 | (1/1) Accurately ripped
10 | (1/1) Accurately ripped

==== Log checksum 6CC5E80DB2F84680C9C36B22033C8F18A32D66AAAC824BBAD2043C6664A26D86 ====


Якщо Ви справді бажаєте підтримати українське - після прослуховування, якщо музика вам сподобалась, придбайте ліцензійний диск. Підтримаймо вітчизняних виконавців!


Срібний реліз (на рейтинг впливає 50% завантаженого)
 Трекер:    Зареєстрований   

Завантажити / скачати українську музику



відео для новачків



 Зареєстрований:   2017-06-19 21:54
 Розмір:   317 MB 
 Оцінка музики:   10/10 (Голосів: 2)
   
Ваш часовий пояс: GMT + 2 Години

Нова тема   Відповісти