Йогануті / Yoga Hosers (2016) Remux 1080p Ukr/Eng | Sub Eng

Нові коментарі

Нова тема   Відповісти
Автор Повідомлення
AngryBirdsUA 
Свій


З нами з: 24.02.10
Востаннє: 23.10.17
Повідомлень: 3037

2017-06-18 23:24  
Йогануті / Yoga Hosers (2016) Remux 1080p Ukr/Eng | Sub Eng

Йогануті / Yoga Hosers (2016) Remux 1080p Ukr/Eng | Sub Eng


Жанр: трилер, комедія, жахи, фентезі
Країна: США



Кінокомпанія: Abbolita Productions, Destro Films, Invincible Pictures
Режисер: Кевін Сміт
Актори: Наташа Ліонн, Лілі Роуз Депп, Джастін Лонг, Адам Броді, Хейлі Джоел Осмент

Сюжет:
Дві юні подружки з Манітоби, що фанатіють від йоги, об'єднаються з легендарним мисливцем за головами з Монреаля, щоб битися з древніми силами зла, які загрожують нашому світу.


Тривалість: 01:27:37
Якість: Remux
Відео:
кодек:
розмір кадру: 1920 х 1080
бітрейт: 27300 кб/с

Аудіо # 1:
мова: українська
переклад: багатоголосий закадровий
кодек: -HD MA 5.1
бітрейт: 3593 кб/с

Аудіо # 2:
мова: англійська
переклад: оригінал
кодек: 5.1
бітрейт: 448 кб/с

Субтитри # 1-2:
мова: англійська
тип: пререндерні
формат: *.PGS
Info
General
Unique ID : 199807462367398230212480045895999300643 (0x9651847A21027E459FB15335FB7C2423)
Complete name : D:\Yoga Hosers (2016) Remux 1080p [Ukr.Eng] [Sub Eng] [Hurtom].
Format :
Format version : Version 4 / Version 2
File size : 19.2 GiB
Duration : 1 h 27 min
Overall bit rate mode : Variable
Overall bit rate : 31.4 Mb/s
Encoded date : UTC 2017-06-18 18:28:18
Writing application : mkvmerge v7.9.0 ('Birds') 64bit
Writing library : libebml v1.3.1 + libmatroska v1.4.2

Video
ID : 1
Format : MPEG Video
Format version : Version 2
Format profile : [email protected]
Format settings, BVOP : Yes
Format settings, Matrix : Default
Format settings, GOP : M=3, N=15
Codec ID : V_MPEG2
Codec ID/Info : MPEG 1 or 2 Video
Duration : 1 h 27 min
Bit rate mode : Variable
Bit rate : 27.3 Mb/s
Maximum bit rate : 36.0 Mb/s
Width : 1 920 pixels
Height : 1 080 pixels
Display aspect ratio : 16:9
Frame rate mode : Constant
Frame rate : 23.976 (24000/1001) FPS
Color space : YUV
Chroma subsampling : 4:2:0
Bit depth : 8 bits
Scan type : Progressive
Compression mode : Lossy
Bits/(Pixel*Frame) : 0.550
Time code of first frame : 00:00:00:00
Time code source : Group of pictures header
GOP, Open/Closed : Closed
Stream size : 16.7 GiB (87%)
Default : Yes
Forced : No

Audio #1
ID : 2
Format :
Format/Info : Digital Theater Systems
Format profile : MA / Core
Mode : 16
Format settings, Endianness : Big
Codec ID : A_DTS
Duration : 1 h 27 min
Bit rate mode : Variable / Constant
Bit rate : 3 593 kb/s / 1 509 kb/s
Channel(s) : 6 channels
Channel positions : Front: L C R, Side: L R, LFE
Sampling rate : 48.0 kHz
Frame rate : 93.750 FPS (512 spf)
Bit depth : 24 bits
Compression mode : Lossless / Lossy
Delay relative to video : -250 ms
Stream size : 2.20 GiB (11%)
Language : Ukrainian
Default : Yes
Forced : No

Audio #2
ID : 3
Format : AC-3
Format/Info : Audio Coding 3
Format settings, Endianness : Big
Codec ID : A_AC3
Duration : 1 h 27 min
Bit rate mode : Constant
Bit rate : 448 kb/s
Channel(s) : 6 channels
Channel positions : Front: L C R, Side: L R, LFE
Sampling rate : 48.0 kHz
Frame rate : 31.250 FPS (1536 spf)
Bit depth : 16 bits
Compression mode : Lossy
Stream size : 281 MiB (1%)
Language : English
Service kind : Complete Main
Default : No
Forced : No

Text #1
ID : 4
Format : PGS
Muxing mode : zlib
Codec ID : S_HDMV/PGS
Codec ID/Info : Picture based subtitle format used on BDs/HD-DVDs
Duration : 1 s 1 ms
Bit rate : 3 332 b/s
Count of elements : 2
Stream size : 417 Bytes (0%)
Language : English
Default : Yes
Forced : No

Text #2
ID : 5
Format : PGS
Muxing mode : zlib
Codec ID : S_HDMV/PGS
Codec ID/Info : Picture based subtitle format used on BDs/HD-DVDs
Duration : 1 h 27 min
Bit rate : 7 391 b/s
Count of elements : 3351
Stream size : 4.63 MiB (0%)
Language : English
Default : No
Forced : No



Подяка пану Hanway за синхронізацію доріжки.


Джерело:


Золотий реліз (завантажене не впливає на рейтинг)
 Трекер:    Зареєстрований   

Завантажити / скачати фільм українською



відео для новачків



 Зареєстрований:   2017-06-18 23:24
 Розмір:   19.21 GB 
 Оцінка фільму:   4.1/10 (Голосів: 19)
   
Інші релізи
   Йогануті / Yoga Hosers (2016) AngryBirdsUA  3 / 0   1.45 GB   2017-06-24 10:03 
   Йогануті / Yoga Hosers (2016) 1080p Ukr/Eng igor911  3 / 0   3.02 GB   2016-10-30 22:03 
   Йогануті / Yoga Hosers (2016) 720p Ukr/Eng igor911  4 / 0   2.45 GB   2016-10-30 21:38 
AngryBirdsUA 
Свій


З нами з: 24.02.10
Востаннє: 23.10.17
Повідомлень: 3037

2017-06-18 23:25  
аві завтра.
Bod_zik99 
VIP


З нами з: 28.12.13
Востаннє: 24.10.17
Повідомлень: 1230

2017-06-18 23:32  
Подякував, незабаром завантажу.
Ваш часовий пояс: GMT + 2 Години

Нова тема   Відповісти