Мій хлопець – кілер (Вбивчий бойфренд | Містер Правильний | Містер Ідеал) / Mr. Right (2015) 720p Ukr/Eng | Sub Eng

Нові коментарі

Нова тема   Відповісти
Автор Повідомлення
Anonymous 







2017-06-18 22:10  
Мій хлопець – кілер / Вбивчий бойфренд / Містер Правильний / Містер Ідеал / Mr. Right (2015) 720p Ukr/Eng | Sub Eng



Жанр: екшн, комедія, романтичний
Країна: США



Кінокомпанія: Amasia Entertainment, 3311 Productions, Circle of Confusion
Режисер: Пако Кабесас / Paco Cabezas
Актори: Сем Роквелл / Sam Rockwell, Анна Кендрік / Anna Kendrick, Тім Рот / Tim Roth, Джеймс Ренсон / James Ransone, Енсон Маунт / Anson Mount, Майкл Еклунд / Michael Eklund, Роберт Діггс (RZA), Кеті Нехра / Katie Nehra, Джейден Кейн / Jaiden Kaine, Дуґлас М. Ґріффін / Douglas M. Griffin та інші

Сюжет:
Марта відчайдушно намагається знайти свою любов, але з хлопцями їй зовсім не щастить. Та коли дівчина зустрічає Френсіса, вона впевнена що кращого хлопця годі й шукати. Уважний, романтичний і сексуальний Френсіс насправді виявляється кілером, який вирішив зав'язати зі своєю професією. Але чи так це легко, як йому хотілося б? Френсіс і Марта нерозлучні, тож ховатися від охочих вбити екс-кілера їм доведеться вдвох.
Офіційні українські трейлери:




Рейтинг MPAA: R - особам до 17 років обов'язкова присутність батьків або дорослого опікуна
Вікова категорія: 16+
Тривалість: 01:35:29
Якість: 720p
Відео:
кодек:
розмір кадру: 1280 x 536
бітрейт: 4784 кб/с [crf=16]

Аудіо:
мова: українська
переклад: багатоголосий закадровий
кодек: 2.0 (стерео)
бітрейт: 192 кб/с

Аудіо # 2:
мова: англійська
переклад: оригінал
кодек: 5.1
бітрейт: 640 кб/с

Субтитри:
мова: англійська
тип: програмні (м'які)
формат: srt

Збережено оригінальні розділи, як на Blu-ray
Info та log
Код:
Complete name               : Mr. Right (2015) [Ukr,Eng sub.Eng] 720p [Hurtom].
Format                      :
Format version              : Version 4 / Version 2
File size                   : 3.75 GiB
Duration                    : 1 h 35 min
Overall bit rate            : 5 619 kb/s
Movie name                  : Мій хлопець – кілер / Вбивчий бойфренд / Містер Правильний / Містер Ідеал / Mr. Right (2015) [Ukr,Eng sub.Eng] 720p [Hurtom]
Released date               : 2015
Cover                       : Yes
Comment                     : http://www.imdb.com/title/tt2091935/
Attachments                 : cover.jpg / logfile.log
ARTIST                      : Сем Роквелл / Sam Rockwell, Анна Кендрік / Anna Kendrick, Тім Рот / Tim Roth, Джеймс Ренсон / James Ransone, Енсон Маунт / Anson Mount, Майкл Еклунд / Michael Eklund, Роберт Діггс (RZA), Кеті Нехра / Katie Nehra, Джейден Кейн / Jaiden Kaine, Дуґлас М. Ґріффін / Douglas M. Griffin та інші
DIRECTOR                    : Пако Кабесас / Paco Cabezas
GENRE                       : екшн, комедія, романтичний
SYNOPSIS                    : Марта відчайдушно намагається знайти свою любов, але з хлопцями їй зовсім не щастить. Та коли дівчина зустрічає Френсіса, вона впевнена що кращого хлопця годі й шукати. Уважний, романтичний і сексуальний Френсіс насправді виявляється кілером, який вирішив зав'язати зі своєю професією. Але чи так це легко, як йому хотілося б? Френсіс і Марта нерозлучні, тож ховатися від охочих вбити екс-кілера їм доведеться вдвох.
Url                         : https://toloka.to/t82483

Video
ID                          : 1
Format                      : AVC
Format/Info                 : Advanced Video Codec
Format profile              : [email protected]
Format settings, CABAC      : Yes
Format settings, ReFrames   : 11 frames
Codec ID                    : V_MPEG4/ISO/AVC
Duration                    : 1 h 35 min
Bit rate                    : 4 784 kb/s
Width                       : 1 280 pixels
Height                      : 536 pixels
Display aspect ratio        : 2.40:1
Frame rate mode             : Constant
Frame rate                  : 23.976 (24000/1001) FPS
Color space                 : YUV
Chroma subsampling          : 4:2:0
Bit depth                   : 8 bits
Scan type                   : Progressive
Bits/(Pixel*Frame)          : 0.291
Stream size                 : 3.19 GiB (85%)
Title                       : Мій хлопець – кілер / Вбивчий бойфренд / Містер Правильний / Містер Ідеал / Mr. Right (2015) 720p [HDClub]
Writing library             : core 148 r2744kMod b97ae06
Encoding settings           : cabac=1 / ref=11 / deblock=1:-3:-3 / analyse=0x3:0x133 / me=umh / subme=10 / psy=1 / fade_compensate=0.00 / psy_rd=1.00:0.00 / mixed_ref=1 / me_range=32 / chroma_me=1 / trellis=2 / 8x8dct=1 / cqm=0 / deadzone=21,11 / fast_pskip=0 / chroma_qp_offset=-2 / threads=12 / lookahead_threads=2 / sliced_threads=0 / nr=0 / decimate=0 / interlaced=0 / bluray_compat=0 / constrained_intra=0 / bframes=9 / b_pyramid=2 / b_adapt=2 / b_bias=0 / direct=3 / weightb=1 / open_gop=0 / weightp=2 / keyint=240 / keyint_min=23 / scenecut=40 / intra_refresh=0 / rc_lookahead=50 / rc=crf / mbtree=0 / crf=16.0000 / qcomp=0.60 / qpmin=0 / qpmax=69 / qpstep=4 / vbv_maxrate=62500 / vbv_bufsize=78125 / crf_max=0.0 / nal_hrd=none / filler=0 / ip_ratio=1.40 / pb_ratio=1.30 / aq=3:0.80
Language                    : English
Default                     : Yes
Forced                      : No

Audio #1
ID                          : 2
Format                      : AC-3
Format/Info                 : Audio Coding 3
Format settings, Endianness : Big
Codec ID                    : A_AC3
Duration                    : 1 h 35 min
Bit rate mode               : Constant
Bit rate                    : 192 kb/s
Channel(s)                  : 2 channels
Channel positions           : Front: L R
Sampling rate               : 48.0 kHz
Frame rate                  : 31.250 FPS (1536 spf)
Bit depth                   : 16 bits
Compression mode            : Lossy
Stream size                 : 131 MiB (3%)
Title                       : MVO [ICTV] 2.0 [stereo] 192 Kbps [Hurtom-Gelios, slavik_v_z]
Language                    : Ukrainian
Service kind                : Complete Main
Default                     : Yes
Forced                      : Yes

Audio #2
ID                          : 3
Format                      : AC-3
Format/Info                 : Audio Coding 3
Format settings, Endianness : Big
Codec ID                    : A_AC3
Duration                    : 1 h 35 min
Bit rate mode               : Constant
Bit rate                    : 640 kb/s
Channel(s)                  : 6 channels
Channel positions           : Front: L C R, Side: L R, LFE
Sampling rate               : 48.0 kHz
Frame rate                  : 31.250 FPS (1536 spf)
Bit depth                   : 16 bits
Compression mode            : Lossy
Stream size                 : 437 MiB (11%)
Title                       : Original, 5.1 640 Kbps
Language                    : English
Service kind                : Complete Main
Default                     : No
Forced                      : No

Text #1
ID                          : 4
Format                      : UTF-8
Codec ID                    : S_TEXT/UTF8
Codec ID/Info               : UTF-8 Plain Text
Duration                    : 1 h 32 min
Bit rate                    : 81 b/s
Count of elements           : 1729
Stream size                 : 55.5 KiB (0%)
Title                       : Eng full
Language                    : English
Default                     : No
Forced                      : No

Text #2
ID                          : 5
Format                      : UTF-8
Codec ID                    : S_TEXT/UTF8
Codec ID/Info               : UTF-8 Plain Text
Duration                    : 1 h 32 min
Bit rate                    : 87 b/s
Count of elements           : 1869
Stream size                 : 59.6 KiB (0%)
Title                       : Eng SDH
Language                    : English
Default                     : No
Forced                      : No

Menu
00:00:00.000                : :Chapter 01
00:04:37.859                : :Chapter 02
00:08:25.712                : :Chapter 03
00:11:40.741                : :Chapter 04
00:15:48.906                : :Chapter 05
00:18:59.638                : :Chapter 06
00:23:35.247                : :Chapter 07
00:27:29.480                : :Chapter 08
00:33:51.446                : :Chapter 09
00:39:11.765                : :Chapter 10
00:43:59.969                : :Chapter 11
00:46:09.349                : :Chapter 12
00:51:56.529                : :Chapter 13
00:56:39.604                : :Chapter 14
00:59:27.814                : :Chapter 15
01:04:24.694                : :Chapter 16
01:10:16.629                : :Chapter 17
01:16:40.762                : :Chapter 18
01:22:23.813                : :Chapter 19
01:28:02.818                : :Chapter 20


Код:
raw [info]: 1280x536p 1:1 @ 24000/1001 fps (cfr)
[info]: using SAR=1/1
[info]: using cpu capabilities: MMX2 SSE2Fast SSSE3 SSE4.2 AVX XOP FMA4 LZCNT
[info]: profile High, level 4.1
[info]: frame I:1478  Avg QP:13.93  size:117311
[info]: frame P:31909 Avg QP:15.44  size: 46532
[info]: frame B:103980 Avg QP:17.10  size: 17005
[info]: consecutive B-frames:  2.8%  2.8% 10.0% 29.6% 17.6% 28.2%  4.6%  1.9%  1.2%  1.2%
[info]: mb I  I16..4:  3.4% 80.3% 16.3%
[info]: mb P  I16..4:  0.8% 13.2%  1.8%  P16..4: 34.9% 25.3% 17.6%  0.7%  0.3%    skip: 5.4%
[info]: mb B  I16..4:  0.1%  1.5%  0.3%  B16..8: 34.7% 16.6%  5.3%  direct: 9.2%  skip:32.4%  L0:44.9% L1:37.4% BI:17.8%
[info]: 8x8 transform intra:82.1% inter:59.2%
[info]: direct mvs  spatial:100.0% temporal:0.0%
[info]: coded y,uvDC,uvAC intra: 92.5% 96.1% 86.3% inter: 26.7% 45.2% 32.9%
[info]: i16 v,h,dc,p: 25% 10%  9% 56%
[info]: i8 v,h,dc,ddl,ddr,vr,hd,vl,hu: 19% 10%  5%  8% 11% 13% 11% 12% 11%
[info]: i4 v,h,dc,ddl,ddr,vr,hd,vl,hu: 15%  7%  3%  9% 15% 15% 13% 12% 11%
[info]: i8c dc,h,v,p: 49% 14% 18% 19%
[info]: Weighted P-Frames: Y:2.5% UV:1.1%
[info]: ref P L0: 46.8%  9.9% 16.6%  6.8%  5.7%  3.6%  3.5%  2.1%  2.0%  1.4%  1.6%  0.1%  0.0%
[info]: ref B L0: 68.8% 12.5%  6.3%  3.7%  2.6%  2.1%  1.7%  1.2%  0.8%  0.3%
[info]: ref B L1: 94.1%  5.9%
[info]: kb/s:4784.36
encoded 137367 frames, 8.57 fps, 4784.36 kb/s, duration 4:27:17.50
Оригінал <----------> Ріп







Джерело: &
Подяка slavik_v_z та Gelios'у за український звук та постер.


 Трекер:    Зареєстрований   

Завантажити / скачати фільм українською



відео для новачків



 Зареєстрований:   2017-06-18 23:02
 Розмір:   3.75 GB 
 Оцінка фільму:   6.5/10 (Голосів: 34)
   
d1076398 
Новенький


З нами з: 14.06.12
Востаннє: 20.08.17
Повідомлень: 23

2017-06-18 23:06  
Дякую. Якраз шукав, що переглянути на ніч.
Sllavko 
Свій


З нами з: 10.06.12
Востаннє: 20.08.17
Повідомлень: 89

2017-06-19 22:47  
легка весела комедія 9/10
casper101 
Поважний учасник


З нами з: 03.12.09
Востаннє: 19.08.17
Повідомлень: 207

2017-06-21 14:19  
тут задовольнили всіх назвою фільму
мені сподобалося.

olthik 
Свій


З нами з: 02.03.16
Востаннє: 19.08.17
Повідомлень: 66

2017-06-23 23:19  
Досить дотепна, як для американців, комедія.
gesko 
Новенький


З нами з: 16.02.17
Востаннє: 20.08.17
Повідомлень: 5

2017-06-24 15:20  
Завжди уникаю американських комедій, в даному випадку не зміг пройти повз Сема Роквела, в підсумку - просто сльози. Дуже гармонійна пара, дуже смішна і як на мене недооцінена рейтингом стрічка. Рекомендую!!!!!
repetitor1986 
Новенький


З нами з: 02.10.13
Востаннє: 20.08.17
Повідомлень: 2

2017-06-25 11:24  
7-8 з 10. Весела комедія на разок глянути з краплею драми, доброти і ніжності. Дивитись рекомендовано без пошуку якоїсь логіки. Її тут не зовсім багато.
-VJ- 
VIP


З нами з: 01.11.09
Востаннє: 19.08.17
Повідомлень: 613

2017-07-23 15:07  
1080p часом не буде?
Anonymous 







2017-07-23 15:17  
-VJ-, від мене не буде.
Ваш часовий пояс: GMT + 2 Години

Нова тема   Відповісти