Морпіхи / Jarhead (2005) 1080p Ukr/Eng | Sub Eng

Нові коментарі

Нова тема   Відповісти
Автор Повідомлення
IronBee 
Свій


З нами з: 08.02.10
Востаннє: 20.08.17
Повідомлень: 60

2017-06-18 16:17  
Морпіхи / Jarhead (2005) 1080p Ukr/Eng | Sub Eng

Морпіхи / Jarhead (2005) 1080p Ukr/Eng | Sub Eng


Жанр: біографічний, драма, військовий
Країна: Німеччина, США



Кінокомпанія: Universal Pictures, Red Wagon Entertainment, Neal Street Productions
Режисер: Сем Мендес / Sam Mendes
Актори: Джейк Джилленгаал / Jake Gyllenhaal, Пітер Сарсґаард / Peter Sarsgaard, Джеймі Фокс / Jamie Foxx, Лукас Блек / Lucas Black, Брайан Джераті / Brian Geraghty, Джейкоб Варґас / Jacob Vargas, Лас Алонсо / Laz Alonso, Івен Джонс / Evan Jones, Кріс Купер / Chris Cooper, Денніс Гейсберт / Dennis Haysbert

Сюжет:
Сюжет:
У 1990 р. американські війська висадились в Кувейті - це була найперша іракська кампанія. Для молодих піхотинців вона тривала багато місяців i закінчилась чотирма бойовими днями без жодного пострілу. Ця війна залишилась в житті кожного з них назавжди. Головний герой - хлопець, який думав, що морська піхота врятує його від "нормального" життя.


Тривалість: 02:02:42
Якість: 1080p
Відео:
кодек:
розмір кадру: 1920 х 816
бітрейт: 14.3 Mb/s

Аудіо # 1:
мова: українська
переклад: багатоголосий закадровий
кодек: 2.0
бітрейт: 192 кб/с

Джерело озвучення:


Аудіо # 2:
мова: англійська
переклад: оригінал
кодек: 5.1
бітрейт: 1509 кб/с

Аудіо # 3:
мова: англійська
переклад: коментарі режисера Сема Мендеса
кодек: 2.0
бітрейт: 192 кб/с

Аудіо # 4:
мова: англійська
переклад: коментарі сценариста Вільяма Бройлеса молодшого та автора книги Ентоні Соуффорда
кодек: 2.0
бітрейт: 192 кб/с

Субтитри:
мова: англійська
тип: програмні (м'які)
формат: *.srt
Info
General
Unique ID : 243018329179633985965432152089354591951 (0xB6D3A0B24566F5C186D628AE41805ECF)
Complete name : D:\Films\Jarhead (2005) [Ukr & Eng] 1080p [Hurtom] .
Format :
Format version : Version 4 / Version 2
File size : 14.1 GiB
Duration : 2 h 2 min
Overall bit rate : 16.4 Mb/s
Movie name : Jarhead (2005) - Release for HDCLUB by SbR
Encoded date : UTC 2017-06-18 12:29:34
Writing application : mkvmerge v12.0.0 ('Trust / Lust') 64bit
Writing library : libebml v1.3.4 + libmatroska v1.4.5
Cover : Yes
Attachments : cover.jpg / xlog.txt

Video
ID : 1
Format : AVC
Format/Info : Advanced Video Codec
Format profile : [email protected]
Format settings, CABAC : Yes
Format settings, ReFrames : 5 frames
Codec ID : V_MPEG4/ISO/AVC
Duration : 2 h 2 min
Bit rate : 14.3 Mb/s
Width : 1 920 pixels
Height : 816 pixels
Display aspect ratio : 2.35:1
Frame rate mode : Constant
Frame rate : 23.976 (24000/1001) FPS
Color space : YUV
Chroma subsampling : 4:2:0
Bit depth : 8 bits
Scan type : Progressive
Bits/(Pixel*Frame) : 0.381
Stream size : 12.3 GiB (87%)
Writing library : core 135 r2345kMod f0c1c53
Encoding settings : cabac=1 / ref=5 / deblock=1:-2:-2 / analyse=0x3:0x113 / me=umh / subme=11 / psy=1 / fade_compensate=0.00 / psy_rd=1.00:0.00 / mixed_ref=1 / me_range=48 / chroma_me=1 / trellis=2 / 8x8dct=1 / cqm=0 / deadzone=21,11 / fast_pskip=1 / chroma_qp_offset=-2 / threads=12 / lookahead_threads=3 / sliced_threads=0 / nr=0 / decimate=1 / interlaced=0 / bluray_compat=0 / constrained_intra=0 / bframes=10 / b_pyramid=2 / b_adapt=2 / b_bias=0 / direct=3 / weightb=1 / open_gop=0 / weightp=2 / keyint=250 / keyint_min=23 / scenecut=40 / intra_refresh=0 / rc_lookahead=60 / rc=crf / mbtree=0 / crf=17.0000 / qcomp=0.60 / qpmin=0 / qpmax=69 / qpstep=4 / vbv_maxrate=62500 / vbv_bufsize=78125 / crf_max=0.0 / nal_hrd=none / ip_ratio=1.40 / pb_ratio=1.30 / aq=1:0.70
Language : English
Default : Yes
Forced : No
Color range : Limited
Color primaries : BT.709
Transfer characteristics : BT.709
Matrix coefficients : BT.709

Audio #1
ID : 2
Format : AC-3
Format/Info : Audio Coding 3
Mode extension : CM (complete main)
Format settings, Endianness : Big
Codec ID : A_AC3
Duration : 2 h 2 min
Bit rate mode : Constant
Bit rate : 192 kb/s
Channel(s) : 2 channels
Channel positions : Front: L R
Sampling rate : 48.0 kHz
Frame rate : 31.250 FPS (1536 spf)
Bit depth : 16 bits
Compression mode : Lossy
Stream size : 169 MiB (1%)
Default : Yes
Forced : No

Audio #2
ID : 3
Format :
Format/Info : Digital Theater Systems
Mode : 16
Format settings, Endianness : Big
Codec ID : A_DTS
Duration : 2 h 2 min
Bit rate mode : Constant
Bit rate : 1 509 kb/s
Channel(s) : 6 channels
Channel positions : Front: L C R, Side: L R, LFE
Sampling rate : 48.0 kHz
Frame rate : 93.750 FPS (512 spf)
Bit depth : 24 bits
Compression mode : Lossy
Stream size : 1.29 GiB (9%)
Language : English
Default : No
Forced : No

Audio #3
ID : 4
Format : AC-3
Format/Info : Audio Coding 3
Mode extension : CM (complete main)
Format settings, Endianness : Big
Codec ID : A_AC3
Duration : 2 h 2 min
Bit rate mode : Constant
Bit rate : 192 kb/s
Channel(s) : 2 channels
Channel positions : Front: L R
Sampling rate : 48.0 kHz
Frame rate : 31.250 FPS (1536 spf)
Bit depth : 16 bits
Compression mode : Lossy
Stream size : 169 MiB (1%)
Title : Feature Commentary with Director Sam Mendes
Language : English
Default : No
Forced : No

Audio #4
ID : 5
Format : AC-3
Format/Info : Audio Coding 3
Mode extension : CM (complete main)
Format settings, Endianness : Big
Codec ID : A_AC3
Duration : 2 h 2 min
Bit rate mode : Constant
Bit rate : 192 kb/s
Channel(s) : 2 channels
Channel positions : Front: L R
Sampling rate : 48.0 kHz
Frame rate : 31.250 FPS (1536 spf)
Bit depth : 16 bits
Compression mode : Lossy
Stream size : 169 MiB (1%)
Title : Feature Commentary with Screenwriter William Broyles Jr. & Author Anthony Swofford
Language : English
Default : No
Forced : No

Text
ID : 6
Format : UTF-8
Codec ID : S_TEXT/UTF8
Codec ID/Info : UTF-8 Plain Text
Duration : 2 h 1 min
Bit rate : 47 b/s
Count of elements : 1331
Stream size : 42.3 KiB (0%)
Language : English
Default : No
Forced : No

Menu
00:00:00.000 : en:Fresh Meat
00:06:29.514 : en:Do You Have What It Takes?
00:12:33.878 : en:Getting the Fear Out
00:15:49.323 : en:Scout Sniper
00:17:35.596 : en:Operation Desert Shield
00:24:49.321 : en:Crude Politics
00:32:05.006 : en:Freedom of Speech
00:37:57.608 : en:A Small Demonstration
00:42:42.518 : en:Messages From Home
00:53:09.227 : en:No Standard Solution
00:57:43.877 : en:Happy Holidays
01:03:46.823 : en:First Contact
01:09:27.496 : en:Operation Desert Storm
01:17:51.041 : en:Commence Combat
01:22:52.384 : en:Hell of a Day
01:28:25.258 : en:I Love This Job
01:36:19.273 : en:Taking Orders
01:43:59.650 : en:My War
01:49:13.838 : en:Welcome Home
01:53:52.033 : en:End Titles
Скріншоти




Джерело: &
Особиста оцінка: 10 - без зайвих вагань рекомендую всім!


Срібний реліз (на рейтинг впливає 50% завантаженого)
 Трекер:    Зареєстрований   

Завантажити / скачати фільм українською



відео для новачків



 Зареєстрований:   2017-06-18 16:17
 Розмір:   14.05 GB 
 Оцінка фільму:   10/10 (Голосів: 6)
   
Інші релізи
   Морпіхи / Jarhead (2005) 720p Ukr/Eng | Sub Eng igor911  3 / 0   6.55 GB   2014-06-29 21:40 
   Морпіхи / Відроголові / Jarhead (2005) Ukr/Eng | Sub Eng karvai0  6 / 0   2.18 GB   2014-06-29 13:07 
   Морпiхи / Jarhead (2005) MAKAPOHHIK  3 / 0   1.85 GB   2009-09-15 08:51 
Ваш часовий пояс: GMT + 2 Години

Нова тема   Відповісти