Вклепалися / Doghouse (2009) 720p Ukr/Eng | Sub Eng

Нові коментарі

Нова тема   Відповісти
Останній раз роздавалося oster_ok (2019-01-30)
Автор Повідомлення
IronBee 
Поважний учасник


З нами з: 08.02.10
Востаннє: 27.01.20
Повідомлень: 225

2017-06-16 23:01  
Вклепалися / Doghouse (2009) 720p Ukr/Eng | Sub Eng

Вклепалися / Doghouse (2009) 720p Ukr/Eng | Sub Eng


Жанр: комедія, жахи, фантастика
Країна: Велика Британія



Кінокомпанія: Carnaby International, Carnaby Film Productions, Hanover Films
Режисер: Джейк Вест
Актори: Денні Даєр, Ноель Кларк, Еміл Марва, Лі Інглбі, Кіт Лі Касл, Христина Коул та інші

Сюжет:
Сюжет фільму оповідає про декілька людей, які подорожуючи під час канікул, натикаються на село, всі жителі якого — жінки, які вижили після того, як над їхніми будинками розпорошили експериментальні смертоносні токсини. Всі вони після цього мутували в психопаток-канібалів, одержимих ненавистю до чоловіків. Мандрівникам залишається тільки поспівчувати, оскільки швидше за все, після зустрічі з подібними істотами, живі будуть заздрити мертвим...


Тривалість: 01:28:50
Якість: 720p
Відео:
кодек:
розмір кадру: 1280 х 544
бітрейт: 6 140 кб/с

Аудіо # 1:
мова: українська
переклад: багатоголосий закадровий
кодек: 2.0
бітрейт: 192 кб/с

Джерело озвучення:


Аудіо # 2:
мова: англійська
переклад: оригінал
кодек: 5.1
бітрейт: 448 кб/с

Субтитри:
мова: англійська
тип: програмні (м'які)
формат: *.srt
Info
General
Unique ID : 193448970496852655892418226349185528252 (0x9188EA9FAEFB2888A57840E9C2B971BC)
Complete name : D:\Films\Вклепалися Doghouse (2009) 720p UkrEng [Hurtom].
Format :
Format version : Version 4 / Version 2
File size : 4.21 GiB
Duration : 1 h 28 min
Overall bit rate mode : Variable
Overall bit rate : 6 781 kb/s
Movie name : Doghouse (2009) / Release by HQ-ViDEO
Encoded date : UTC 2017-06-16 20:42:54
Writing application : v12.0.0 ('Trust / Lust') 64bit
Writing library : libebml v1.3.4 + v1.4.5

Video
ID : 1
Format : AVC
Format/Info : Advanced Video Codec
Format profile : [email protected]
Format settings, CABAC : Yes
Format settings, ReFrames : 6 frames
Codec ID : V_MPEG4/ISO/AVC
Duration : 1 h 28 min
Bit rate mode : Variable
Bit rate : 6 140 kb/s
Width : 1 280 pixels
Height : 544 pixels
Display aspect ratio : 2.35:1
Frame rate mode : Constant
Frame rate : 23.976 (24000/1001) FPS
Color space : YUV
Chroma subsampling : 4:2:0
Bit depth : 8 bits
Scan type : Progressive
Bits/(Pixel*Frame) : 0.368
Stream size : 3.81 GiB (91%)
Title : Encoded by GYN
Default : Yes
Forced : No

Audio #1
ID : 2
Format : AC-3
Format/Info : Audio Coding 3
Mode extension : CM (complete main)
Format settings, Endianness : Big
Codec ID : A_AC3
Duration : 1 h 28 min
Bit rate mode : Constant
Bit rate : 192 kb/s
Channel(s) : 2 channels
Channel positions : Front: L R
Sampling rate : 48.0 kHz
Frame rate : 31.250 FPS (1536 spf)
Bit depth : 16 bits
Compression mode : Lossy
Stream size : 122 MiB (3%)
Default : Yes
Forced : No

Audio #2
ID : 3
Format : AC-3
Format/Info : Audio Coding 3
Mode extension : CM (complete main)
Format settings, Endianness : Big
Codec ID : A_AC3
Duration : 1 h 28 min
Bit rate mode : Constant
Bit rate : 448 kb/s
Channel(s) : 6 channels
Channel positions : Front: L C R, Side: L R, LFE
Sampling rate : 48.0 kHz
Frame rate : 31.250 FPS (1536 spf)
Bit depth : 16 bits
Compression mode : Lossy
Stream size : 285 MiB (7%)
Language : English
Default : No
Forced : No

Text
ID : 4
Format : UTF-8
Codec ID : S_TEXT/UTF8
Codec ID/Info : UTF-8 Plain Text
Duration : 1 h 24 min
Bit rate : 48 b/s
Count of elements : 862
Stream size : 29.8 KiB (0%)
Language : English
Default : No
Forced : No
Скріншоти





Джерело: &
Особиста оцінка: 8 - мені сподобалося


 Трекер:    Зареєстрований   

Завантажити / скачати фільм українською



відео для новачків



 Зареєстрований:   2017-06-16 23:01
 Розмір:   4.21 GB 
 Оцінка фільму:   7.3/10 (Голосів: 8)
   
Інші релізи
   Вклепалися / Doghouse (2009) AVC Ukr/Eng staf777  0 / 0   1.24 GB   2018-11-19 23:29 
   Вклепалися / Doghouse (2009) Remux 1080p Ukr/Eng | Sub Eng staf777  0 / 0   9.39 GB   2018-11-17 11:39 
   Вклепалися / Попалися / Doghouse (2009) Electroz  1 / 0   1.34 GB   2017-06-11 11:18 
spacelord 
Новенький


З нами з: 24.08.09
Востаннє: 27.01.20
Повідомлень: 14

2017-06-16 23:34  
Колись в 2010-му дивився в оригіналі. Пізніше ще раз передивився.
ДУЖЕ класний фільм. Любителям чорного британського гумору дивитися обов'язково.
Певно подивлюся ще раз з перекладом.

RockKinder 
Свій


З нами з: 09.01.09
Востаннє: 08.01.20
Повідомлень: 62

2017-06-20 21:32  
Деякі дівчата у фільмі доволі привабливі, принаймні фігури мають гарні. Особливо "перукарка" та "наречена". Було б цікаво потрапити в таке маленьке, лісове, жіноче містечко, щоправда, до зомбі-апокаліпсису...
А якщо по суті, то фільм доволі посередній, схожий на десятки інших. Яскравих родзинок немає. Гумор теж посередній, та й не багато його, добре що хоч не туалетний...
Щодо мене, то я в даному жанрі поки ще не бачив фільму ліпшого за Shaun of the Dead.

Ваш часовий пояс: GMT + 2 Години

Нова тема   Відповісти