Каліфорнійський дорожній патруль / CHIPS (2017) AVC Ukr/Eng | Sub Eng

Нові коментарі

Нова тема   Відповісти
Автор Повідомлення
Anonymous 







2017-06-16 15:24  
Каліфорнійський дорожній патруль / CHIPS (2017) AVC Ukr/Eng | Sub Eng

Каліфорнійський дорожній патруль / CHIPS (2017) AVC Ukr/Eng | Sub Eng


Жанр: бойовик, комедія, кримінальний
Країна: США



Кінокомпанія: Primate Pictures, Warner Bros.
Режисер: Декс Шепард / Dax Shepard
Актори: Майкл Пенья / Michael Peña, Декс Шепард / Dax Shepard, Вінсент Д’Онофріо / Vincent D'Onofrio, Роза Салазар / Rosa Salazar, Джессіка МакНемі / Jessica McNamee, Адам Броді / Adam Brody, Ісайя Вітлок мол. / Isiah Whitlock Jr., Річард Т. Джонс / Richard T. Jones, Раян Гансен / Ryan Hansen, Крістен Белл / Kristen Bell, Джастін Четвін / Justin Chatwin, Бен Фалкон / Ben Falcone та інші

Сюжет:
Агент ФБР, фахівець з роботи під прикриттям та зваблення жінок, отримує нове завдання - провести внутрішнє розслідування в каліфорнійському дорожньому патрулі. Банда на швидкісних мотоциклах грабує інкасаторські автомобілі, і ФБР підозрює, що їм допомагає хтось із своїх. Нову особистість агента під прикриттям звуть Френк Пончерелло, і тепер він патрулює дороги сонячної Каліфорнії. У напарники йому дістається принциповий новачок і колишній мотогонщик Джон, на якого боляче дивитись - хлопець переніс купу операцій, тому живе на одних знеболювальних.

Фільм знятий за мотивами популярного в 70-их роках у США серіалу CHiPs.
Офіційний український трейлер:

Рейтинг MPAA: R - особам до 17 років обов'язкова присутність батьків або дорослого опікуна
Вікова категорія: 16+
Тривалість: 01:40:51
Якість: AVC
Відео:
кодек:
розмір кадру: 1024 х 576
бітрейт: 2692 кб/с

Аудіо # 1:
мова: українська
переклад: професійний дубльований | студія Postmodern
кодек: 2.0
бітрейт: 192 кб/с
Інформація про дубляж
Переклад: Олег Колесніков
Режисер дубляжу: Павло Скороходько
Звукорежисер: Андрій Желуденко
Звукорежисери перезапису: Олександр Мостовенко та Юрій Антонов
Ролі дублювали: Назар Задніпровський, Роман Чорний, Євген Сінчуков, Катерина Брайковська, Євген Пашин, Борис Георгієвський, Катерина Буцька, Дмитро Гаврилов та інші.
Аудіо # 2:
мова: англійська
переклад: оригінал
кодек: 5.1
бітрейт: 448 кб/с

Субтитри # 1-3:
мова: англійська (повні, SDH, SDH Colored)
тип: програмні (м'які)
формат: srt

Збережено оригінальні розділи, як на Blu-ray
Info
Код:
Complete name               : CHIPS (2017) [Ukr,Eng sub.Eng] AVC [Hurtom].
Format                      :
Format version              : Version 4 / Version 2
File size                   : 2.34 GiB
Duration                    : 1 h 40 min
Overall bit rate            : 3 328 kb/s
Movie name                  : Каліфорнійський дорожній патруль / CHIPS (2017) [Ukr,Eng sub.Eng] AVC [Hurtom]
Released date               : 2017
Cover                       : Yes
Comment                     : http://www.imdb.com/title/tt0493405/
Attachments                 : cover.jpg
ARTIST                      : Майкл Пенья / Michael Peña, Декс Шепард / Dax Shepard, Вінсент Д’Онофріо / Vincent D'Onofrio, Роза Салазар / Rosa Salazar, Джессіка МакНемі / Jessica McNamee, Адам Броді / Adam Brody, Ісайя Вітлок мол. / Isiah Whitlock Jr., Річард Т. Джонс / Richard T. Jones, Раян Гансен / Ryan Hansen, Крістен Белл / Kristen Bell, Джастін Четвін / Justin Chatwin, Бен Фалкон / Ben Falcone та інші
DIRECTOR                    : Декс Шепард / Dax Shepard
GENRE                       : бойовик, комедія, кримінальний
SYNOPSIS                    : Агент ФБР, фахівець з роботи під прикриттям та зваблення жінок, отримує нове завдання - провести внутрішнє розслідування в каліфорнійському дорожньому патрулі. Банда на швидкісних мотоциклах грабує інкасаторські автомобілі, і ФБР підозрює, що їм допомагає хтось із своїх. Нову особистість агента під прикриттям звуть Френк Поншерелло, і тепер він патрулює дороги сонячної Каліфорнії. У напарники йому дістається принциповий новачок і колишній мотогонщик Джон, на якого страшно глянути - хлопець переніс купу операцій, тому живе на одних знеболюючих
Url                         : https://toloka.to/t82451

Video
ID                          : 1
Format                      : AVC
Format/Info                 : Advanced Video Codec
Format profile              : [email protected]
Format settings, CABAC      : Yes
Format settings, RefFrames  : 12 frames
Codec ID                    : V_MPEG4/ISO/AVC
Duration                    : 1 h 40 min
Bit rate                    : 2 692 kb/s
Width                       : 1 024 pixels
Height                      : 576 pixels
Display aspect ratio        : 16:9
Frame rate mode             : Constant
Frame rate                  : 23.976 (24000/1001) FPS
Color space                 : YUV
Chroma subsampling          : 4:2:0
Bit depth                   : 8 bits
Scan type                   : Progressive
Bits/(Pixel*Frame)          : 0.190
Stream size                 : 1.89 GiB (81%)
Title                       : Каліфорнійський дорожній патруль / CHIPS (2017) AVC [Lexx]
Writing library             : core 150 r2833kMod df79067
Encoding settings           : cabac=1 / ref=12 / deblock=1:-3:-3 / analyse=0x3:0x113 / me=umh / subme=11 / psy=1 / fade_compensate=0.00 / psy_rd=1.00:0.15 / mixed_ref=1 / me_range=48 / chroma_me=1 / trellis=2 / 8x8dct=1 / cqm=0 / deadzone=21,11 / fast_pskip=0 / chroma_qp_offset=-3 / threads=12 / lookahead_threads=3 / sliced_threads=0 / nr=0 / decimate=0 / interlaced=0 / bluray_compat=0 / constrained_intra=0 / bframes=10 / b_pyramid=2 / b_adapt=2 / b_bias=0 / direct=3 / weightb=1 / open_gop=0 / weightp=2 / keyint=240 / keyint_min=23 / scenecut=40 / intra_refresh=0 / rc_lookahead=40 / rc=2pass / mbtree=0 / bitrate=2692 / ratetol=1.0 / qcomp=0.60 / qpmin=0 / qpmax=69 / qpstep=4 / cplxblur=20.0 / qblur=0.5 / vbv_maxrate=50000 / vbv_bufsize=62500 / nal_hrd=none / filler=0 / ip_ratio=1.40 / pb_ratio=1.30 / aq=1:1.00
Language                    : English
Default                     : Yes
Forced                      : No
Color range                 : Limited
Color primaries             : BT.709
Transfer characteristics    : BT.709
Matrix coefficients         : BT.709

Audio #1
ID                          : 2
Format                      : AC-3
Format/Info                 : Audio Coding 3
Format settings, Endianness : Big
Codec ID                    : A_AC3
Duration                    : 1 h 40 min
Bit rate mode               : Constant
Bit rate                    : 192 kb/s
Channel(s)                  : 2 channels
Channel positions           : Front: L R
Sampling rate               : 48.0 kHz
Frame rate                  : 31.250 FPS (1536 SPF)
Bit depth                   : 16 bits
Compression mode            : Lossy
Stream size                 : 139 MiB (6%)
Title                       : Dub [Postmodern, Line] 2.0 192 Kbps [Hurtom-Covenant]
Language                    : Ukrainian
Service kind                : Complete Main
Default                     : Yes
Forced                      : Yes

Audio #2
ID                          : 3
Format                      : AC-3
Format/Info                 : Audio Coding 3
Format settings, Endianness : Big
Codec ID                    : A_AC3
Duration                    : 1 h 40 min
Bit rate mode               : Constant
Bit rate                    : 448 kb/s
Channel(s)                  : 6 channels
Channel positions           : Front: L C R, Side: L R, LFE
Sampling rate               : 48.0 kHz
Frame rate                  : 31.250 FPS (1536 SPF)
Bit depth                   : 16 bits
Compression mode            : Lossy
Stream size                 : 323 MiB (13%)
Title                       : Original, 5.1 448 Kbps
Language                    : English
Service kind                : Complete Main
Default                     : No
Forced                      : No

Text #1
ID                          : 4
Format                      : UTF-8
Codec ID                    : S_TEXT/UTF8
Codec ID/Info               : UTF-8 Plain Text
Duration                    : 1 h 37 min
Bit rate                    : 82 b/s
Count of elements           : 1871
Stream size                 : 58.8 KiB (0%)
Title                       : Eng Full
Language                    : English
Default                     : No
Forced                      : No

Text #2
ID                          : 5
Format                      : UTF-8
Codec ID                    : S_TEXT/UTF8
Codec ID/Info               : UTF-8 Plain Text
Duration                    : 1 h 39 min
Bit rate                    : 88 b/s
Count of elements           : 2040
Stream size                 : 64.7 KiB (0%)
Title                       : Eng SDH
Language                    : English
Default                     : No
Forced                      : No

Text #3
ID                          : 6
Format                      : UTF-8
Codec ID                    : S_TEXT/UTF8
Codec ID/Info               : UTF-8 Plain Text
Duration                    : 1 h 38 min
Bit rate                    : 103 b/s
Count of elements           : 2003
Stream size                 : 74.4 KiB (0%)
Title                       : Eng SDH-Colored
Language                    : English
Default                     : No
Forced                      : No

Menu
00:00:00.000                : :Chapter 01
00:10:48.356                : :Chapter 02
00:19:28.959                : :Chapter 03
00:29:58.004                : :Chapter 04
00:39:53.599                : :Chapter 05
00:50:45.667                : :Chapter 06
01:02:38.421                : :Chapter 07
01:13:40.249                : :Chapter 08
01:25:41.386                : :Chapter 09
01:37:41.939                : :Chapter 10
01:40:51.712                : :Chapter 11



Джерело: &
Подяка за українську доріжку Covenant'у.


 Трекер:    Зареєстрований   

Завантажити / скачати фільм українською



відео для новачків



 Зареєстрований:   2017-07-16 20:54
 Розмір:   2.34 GB 
 Оцінка фільму:   8.8/10 (Голосів: 26)
   
redcit 
VIP


З нами з: 21.12.10
Востаннє: 21.07.17
Повідомлень: 384

2017-06-19 18:53  
Дакс Шепард це версія Зака Браффа для бідних.
dimon125 
Новенький


З нами з: 22.10.10
Востаннє: 12.07.17
Повідомлень: 1

2017-06-19 19:16  
Ви НАЙКРАЩІ!!!!
mrsdoubtfire 
Частий відвідувач


З нами з: 22.10.15
Востаннє: 22.07.17
Повідомлень: 36

2017-07-16 22:33  
Один з тих фільмів, які варто дивитись тільки заради перекладу.
tetna 
VIP


З нами з: 21.11.14
Востаннє: 24.07.17
Повідомлень: 365

2017-07-18 01:18  
Озвучка просто класнюча.
Та й фільм також.

Victor_Scythian 
Частий відвідувач


З нами з: 06.01.17
Востаннє: 24.07.17
Повідомлень: 42

2017-07-18 12:45  
Дякую за позитив 10/10
Fonbaron 
Частий відвідувач


З нами з: 09.12.12
Востаннє: 23.07.17
Повідомлень: 41

2017-07-19 21:09  
фільм дуже ржачний дякую!
Ваш часовий пояс: GMT + 2 Години

Нова тема   Відповісти