Татусь моєї колишньої / All Nighter (2017) 720p Ukr/Eng | Sub Eng

Нові коментарі

Нова тема   Відповісти
Автор Повідомлення
Anonymous 







2017-06-15 13:01  
Татусь моєї колишньої / All Nighter (2017) 720p Ukr/Eng | Sub Eng

Татусь моєї колишньої / All Nighter (2017) 720p Ukr/Eng | Sub Eng


Жанр: комедія
Країна: США



Кінокомпанія: Spring Pictures, Wing and a Prayer Pictures, Green Hummingbird
Режисер: Гевін В’єсен / Gavin Wiesen
Актори: Дж.К. Сіммонс / J.K. Simmons, Еміль Хірш / Emile Hirsch, Аналі Тіптон / Analeigh Tipton, Крістен Шаал / Kristen Schaal, Шеннон Марі Вудворд / Shannon Marie Woodward, Гантер Перріш / Hunter Parrish, Мета Голдінг / Meta Golding та інші

Сюжет:
Відтоді як Джинні вирішила порвати з ним, Мартін не може прийти до тями. Його квартира поступово перетворюється на смітник, як і все його недолуге життя, яке так і котилось би під укіс, якби одного разу на порозі не з’явився містер Галло, злісний і пихатий татусь Джинні. Річ у тім, що він утратив зв'язок зі своєю донькою, і Мартін — його єдина ниточка. Незважаючи на всі його протести, містер Галло, який не звик отримувати відмови, втягує Мартіна у шалену нічну пригоду на вулицях Лос-Анджелеса.
Офіційний український трейлер:

Рейтинг MPAA: R - особам до 17 років обов'язкова присутність батьків або дорослого опікуна
Вікова категорія: 16+
Тривалість: 01:25:55
Якість: 720p
Відео:
кодек:
розмір кадру: 1280 х 530
бітрейт: 5181 кб/с [crf=15.3]

Аудіо # 1:
мова: українська
переклад: багатоголосий закадровий
кодек: 2.0
бітрейт: 192 кб/с

Аудіо # 2:
мова: англійська
переклад: оригінал
кодек: 5.1
бітрейт: 640 кб/с

Субтитри:
мова: англійська
тип: програмні (м'які)
формат: srt

Збережено оригінальні розділи, як на Blu-ray
Info
Код:
Complete name               : All Nighter (2017) [Ukr,Eng sub.Eng] 720p [Hurtom].
Format                      :
Format version              : Version 4 / Version 2
File size                   : 3.61 GiB
Duration                    : 1 h 25 min
Overall bit rate            : 6 016 kb/s
Movie name                  : Татусь моєї колишньої / All Nighter (2017) [Ukr,Eng sub.Eng] 720p [Hurtom]
Released date               : 2017
Cover                       : Yes
Comment                     : http://www.imdb.com/title/tt4662420/
Attachments                 : cover.jpg
ARTIST                      : Дж.К. Сіммонс / J.K. Simmons, Еміль Хірш / Emile Hirsch, Аналі Тіптон / Analeigh Tipton, Крістен Шаал / Kristen Schaal, Шеннон Марі Вудворд / Shannon Marie Woodward, Гантер Перріш / Hunter Parrish, Мета Голдінг / Meta Golding та інші
DIRECTOR                    : Гевін В’єсен / Gavin Wiesen
GENRE                       : комедія
SYNOPSIS                    : Відтоді як Джинні вирішила порвати з ним, Мартін не може прийти до тями. Його квартира поступово перетворюється на смітник, як і все його недолуге життя, яке так і котилось би під укіс, якби одного разу на порозі не з’явився містер Галло, злісний і пихатий татусь Джинні. Річ у тім, що він утратив зв'язок зі своєю донькою, і Мартін — його єдина ниточка. Незважаючи на всі його протести, містер Галло, який не звик отримувати відмови, втягує Мартіна у шалену нічну пригоду на вулицях Лос-Анджелеса.
Url                         : https://toloka.to/t82432

Video
ID                          : 1
Format                      : AVC
Format/Info                 : Advanced Video Codec
Format profile              : [email protected]
Format settings, CABAC      : Yes
Format settings, ReFrames   : 12 frames
Codec ID                    : V_MPEG4/ISO/AVC
Duration                    : 1 h 25 min
Bit rate                    : 5 181 kb/s
Width                       : 1 280 pixels
Height                      : 530 pixels
Display aspect ratio        : 2.40:1
Frame rate mode             : Constant
Frame rate                  : 23.976 (24000/1001) FPS
Color space                 : YUV
Chroma subsampling          : 4:2:0
Bit depth                   : 8 bits
Scan type                   : Progressive
Bits/(Pixel*Frame)          : 0.319
Stream size                 : 3.11 GiB (86%)
Title                       : Татусь моєї колишньої / All Nighter (2017) 720p [ExKinoRay]
Writing library             : core 148 r2762+56 6284cf3 t_mod_Custom [[email protected] X86_64]
Encoding settings           : cabac=1 / ref=12 / deblock=1:-3:-3 / analyse=0x3:0x133 / me=umh / subme=11 / psy=1 / fade_compensate=0.00 / psy_rd=1.05:0.00 / mixed_ref=1 / me_range=32 / chroma_me=1 / trellis=2 / 8x8dct=1 / cqm=0 / deadzone=21,11 / fast_pskip=0 / chroma_qp_offset=-2 / threads=12 / lookahead_threads=3 / sliced_threads=0 / nr=0 / decimate=0 / interlaced=0 / bluray_compat=0 / constrained_intra=0 / fgo=0 / bframes=10 / b_pyramid=2 / b_adapt=2 / b_bias=0 / direct=3 / weightb=1 / open_gop=0 / weightp=2 / keyint=250 / keyint_min=23 / scenecut=40 / intra_refresh=0 / rc_lookahead=60 / rc=crf / mbtree=0 / crf=15.3000 / qcomp=0.62 / qpmin=0:0:0 / qpmax=69:69:69 / qpstep=4 / vbv_maxrate=62500 / vbv_bufsize=78125 / crf_max=0.0 / nal_hrd=none / filler=0 / ip_ratio=1.36 / pb_ratio=1.20 / aq=3:0.76 / aq-sensitivity=10.00 / aq-factor=1.00:1.00:1.00 / aq2=0 / aq3=0 / zones=0,876,crf=11
Language                    : English
Default                     : Yes
Forced                      : No

Audio #1
ID                          : 2
Format                      : AC-3
Format/Info                 : Audio Coding 3
Format settings, Endianness : Big
Codec ID                    : A_AC3
Duration                    : 1 h 25 min
Bit rate mode               : Constant
Bit rate                    : 192 kb/s
Channel(s)                  : 2 channels
Channel positions           : Front: L R
Sampling rate               : 48.0 kHz
Frame rate                  : 31.250 FPS (1536 spf)
Bit depth                   : 16 bits
Compression mode            : Lossy
Stream size                 : 118 MiB (3%)
Title                       : MVO, 2.0 192 Kbps [Hurtom-Hanway, AngryBirdsUA]
Language                    : Ukrainian
Service kind                : Complete Main
Default                     : Yes
Forced                      : Yes

Audio #2
ID                          : 3
Format                      : AC-3
Format/Info                 : Audio Coding 3
Format settings, Endianness : Big
Codec ID                    : A_AC3
Duration                    : 1 h 25 min
Bit rate mode               : Constant
Bit rate                    : 640 kb/s
Channel(s)                  : 6 channels
Channel positions           : Front: L C R, Side: L R, LFE
Sampling rate               : 48.0 kHz
Frame rate                  : 31.250 FPS (1536 spf)
Bit depth                   : 16 bits
Compression mode            : Lossy
Stream size                 : 393 MiB (11%)
Title                       : Original, 5.1 640 Kbps
Language                    : English
Service kind                : Complete Main
Default                     : No
Forced                      : No

Text
ID                          : 4
Format                      : UTF-8
Codec ID                    : S_TEXT/UTF8
Codec ID/Info               : UTF-8 Plain Text
Duration                    : 1 h 20 min
Bit rate                    : 76 b/s
Count of elements           : 1663
Stream size                 : 45.0 KiB (0%)
Title                       : Eng Full
Language                    : English
Default                     : No
Forced                      : No

Menu
00:00:00.000                : en: Chapter 1
00:12:17.237                : en: Chapter 2
00:24:11.450                : en: Chapter 3
00:34:18.390                : en: Chapter 4
00:48:01.128                : en: Chapter 5
00:59:37.157                : en: Chapter 6
01:10:59.505                : en: Chapter 7
01:20:11.890                : en: Chapter 8



Підтримати купівлю інших фільмів можна тут



Джерело: &
Подяка AngryBirdsUA та Hanway'ю за українську доріжку


 Трекер:    Зареєстрований   

Завантажити / скачати фільм українською



відео для новачків



 Зареєстрований:   2017-06-15 14:19
 Розмір:   3.61 GB 
 Оцінка фільму:   6.1/10 (Голосів: 30)
   
Інші релізи
casper101 
Поважний учасник


З нами з: 03.12.09
Востаннє: 22.08.17
Повідомлень: 207

2017-06-17 12:46  
інтересно чи твроці фільму перевіряють як інші країни перекладають назву фільму, "цілу ніч"
Anonymous 







2017-06-17 12:47  
casper101, не "цілу ніч"
starlost 
Свій


З нами з: 07.08.15
Востаннє: 20.08.17
Повідомлень: 98

2017-06-17 13:01  
casper101 написано:
"цілу ніч"

не цілу ніч, а наче "не спати цілу ніч"
варіант: "Не змикаючи очей" Wink (2)

archi86 
Свій


З нами з: 06.01.15
Востаннє: 15.08.17
Повідомлень: 111

2017-06-17 14:08  
нічого цікавого
armogun 
Частий відвідувач


З нами з: 04.05.13
Востаннє: 22.08.17
Повідомлень: 25

2017-06-17 19:16  
Добротний фільм ні про що
bmwhalyava 
Новенький


З нами з: 09.07.15
Востаннє: 20.08.17
Повідомлень: 20

2017-06-17 19:49  
Відстій! Трейлер один переклад а по факту нудота!
Ваш часовий пояс: GMT + 2 Години

Нова тема   Відповісти