Татусь моєї колишньої / All Nighter (2017) AVC Ukr/Eng | Sub Eng

Нові коментарі

Нова тема   Відповісти
Автор Повідомлення
Anonymous 







2017-06-15 11:51  
Татусь моєї колишньої / All Nighter (2017) AVC Ukr/Eng | Sub Eng

Татусь моєї колишньої / All Nighter (2017) AVC Ukr/Eng | Sub Eng


Жанр: комедія
Країна: США



Кінокомпанія: Spring Pictures, Wing and a Prayer Pictures, Green Hummingbird
Режисер: Гевін В’єсен / Gavin Wiesen
Актори: Дж.К. Сіммонс / J.K. Simmons, Еміль Хірш / Emile Hirsch, Аналі Тіптон / Analeigh Tipton, Крістен Шаал / Kristen Schaal, Шеннон Марі Вудворд / Shannon Marie Woodward, Гантер Перріш / Hunter Parrish, Мета Голдінг / Meta Golding та інші

Сюжет:
Відтоді як Джинні вирішила порвати з ним, Мартін не може прийти до тями. Його квартира поступово перетворюється на смітник, як і все його недолуге життя, яке так і котилось би під укіс, якби одного разу на порозі не з’явився містер Галло, злісний і пихатий татусь Джинні. Річ у тім, що він утратив зв'язок зі своєю донькою, і Мартін — його єдина ниточка. Незважаючи на всі його протести, містер Галло, який не звик отримувати відмови, втягує Мартіна у шалену нічну пригоду на вулицях Лос-Анджелеса.
Офіційний український трейлер:

Рейтинг MPAA: R - особам до 17 років обов'язкова присутність батьків або дорослого опікуна
Вікова категорія: 16+
Тривалість: 01:25:55
Якість: AVC
Відео:
кодек:
розмір кадру: 1024 х 422
бітрейт: 1520 кб/с

Аудіо # 1:
мова: українська
переклад: багатоголосий закадровий
кодек: 2.0
бітрейт: 192 кб/с

Аудіо # 2:
мова: англійська
переклад: оригінал
кодек: 5.1
бітрейт: 448 кб/с

Субтитри:
мова: англійська
тип: програмні (м'які)
формат: srt

Збережено оригінальні розділи, як на Blu-ray
Info
Код:
Complete name               : All Nighter (2017) [Ukr,Eng sub.Eng] AVC [Hurtom].
Format                      :
Format version              : Version 4 / Version 2
File size                   : 1.29 GiB
Duration                    : 1 h 25 min
Overall bit rate            : 2 157 kb/s
Movie name                  : Татусь моєї колишньої / All Nighter (2017) [Ukr,Eng sub.Eng] AVC [Hurtom]
Released date               : 2017
Cover                       : Yes
Comment                     : http://www.imdb.com/title/tt4662420/
Attachments                 : cover.jpg
ARTIST                      : Дж.К. Сіммонс / J.K. Simmons, Еміль Хірш / Emile Hirsch, Аналі Тіптон / Analeigh Tipton, Крістен Шаал / Kristen Schaal, Шеннон Марі Вудворд / Shannon Marie Woodward, Гантер Перріш / Hunter Parrish, Мета Голдінг / Meta Golding та інші
DIRECTOR                    : Гевін В’єсен / Gavin Wiesen
GENRE                       : комедія
SYNOPSIS                    : Відтоді як Джинні вирішила порвати з ним, Мартін не може прийти до тями. Його квартира поступово перетворюється на смітник, як і все його недолуге життя, яке так і котилось би під укіс, якби одного разу на порозі не з’явився містер Галло, злісний і пихатий татусь Джинні. Річ у тім, що він утратив зв'язок зі своєю донькою, і Мартін — його єдина ниточка. Незважаючи на всі його протести, містер Галло, який не звик отримувати відмови, втягує Мартіна у шалену нічну пригоду на вулицях Лос-Анджелеса.
Url                         : https://toloka.to/t82430

Video
ID                          : 1
Format                      : AVC
Format/Info                 : Advanced Video Codec
Format profile              : [email protected]
Format settings, CABAC      : Yes
Format settings, ReFrames   : 11 frames
Codec ID                    : V_MPEG4/ISO/AVC
Duration                    : 1 h 25 min
Bit rate                    : 1 520 kb/s
Width                       : 1 024 pixels
Height                      : 422 pixels
Display aspect ratio        : 2.40:1
Frame rate mode             : Constant
Frame rate                  : 23.976 (24000/1001) FPS
Color space                 : YUV
Chroma subsampling          : 4:2:0
Bit depth                   : 8 bits
Scan type                   : Progressive
Bits/(Pixel*Frame)          : 0.147
Stream size                 : 931 MiB (70%)
Title                       : Татусь моєї колишньої / All Nighter (2017) AVC [ExKinoRay-Enigma]
Writing library             : core 144 r2525 40bb568
Encoding settings           : cabac=1 / ref=11 / deblock=1:-2:-2 / analyse=0x3:0x113 / me=umh / subme=10 / psy=1 / psy_rd=1.05:0.10 / mixed_ref=1 / me_range=32 / chroma_me=1 / trellis=2 / 8x8dct=1 / cqm=0 / deadzone=21,11 / fast_pskip=1 / chroma_qp_offset=-3 / threads=12 / lookahead_threads=3 / sliced_threads=0 / nr=0 / decimate=0 / interlaced=0 / bluray_compat=0 / constrained_intra=0 / bframes=12 / b_pyramid=2 / b_adapt=2 / b_bias=0 / direct=3 / weightb=1 / open_gop=0 / weightp=2 / keyint=240 / keyint_min=23 / scenecut=40 / intra_refresh=0 / rc_lookahead=40 / rc=2pass / mbtree=0 / bitrate=1520 / ratetol=1.0 / qcomp=0.60 / qpmin=0 / qpmax=51 / qpstep=4 / cplxblur=20.0 / qblur=0.5 / vbv_maxrate=50000 / vbv_bufsize=62500 / nal_hrd=none / filler=0 / ip_ratio=1.40 / pb_ratio=1.30 / aq=1:1.00
Language                    : English
Default                     : Yes
Forced                      : No
Color range                 : Limited
Color primaries             : BT.709
Transfer characteristics    : BT.709
Matrix coefficients         : BT.709

Audio #1
ID                          : 2
Format                      : AC-3
Format/Info                 : Audio Coding 3
Format settings, Endianness : Big
Codec ID                    : A_AC3
Duration                    : 1 h 25 min
Bit rate mode               : Constant
Bit rate                    : 192 kb/s
Channel(s)                  : 2 channels
Channel positions           : Front: L R
Sampling rate               : 48.0 kHz
Frame rate                  : 31.250 FPS (1536 spf)
Bit depth                   : 16 bits
Compression mode            : Lossy
Stream size                 : 118 MiB (9%)
Title                       : MVO, 2.0 192 Kbps [Hurtom-Hanway, AngryBirdsUA]
Language                    : Ukrainian
Service kind                : Complete Main
Default                     : Yes
Forced                      : Yes

Audio #2
ID                          : 3
Format                      : AC-3
Format/Info                 : Audio Coding 3
Format settings, Endianness : Big
Codec ID                    : A_AC3
Duration                    : 1 h 25 min
Bit rate mode               : Constant
Bit rate                    : 448 kb/s
Channel(s)                  : 6 channels
Channel positions           : Front: L C R, Side: L R, LFE
Sampling rate               : 48.0 kHz
Frame rate                  : 31.250 FPS (1536 spf)
Bit depth                   : 16 bits
Compression mode            : Lossy
Stream size                 : 275 MiB (21%)
Title                       : Original, 5.1 448 Kbps
Language                    : English
Service kind                : Complete Main
Default                     : No
Forced                      : No

Text
ID                          : 4
Format                      : UTF-8
Codec ID                    : S_TEXT/UTF8
Codec ID/Info               : UTF-8 Plain Text
Duration                    : 1 h 20 min
Bit rate                    : 76 b/s
Count of elements           : 1663
Stream size                 : 45.0 KiB (0%)
Title                       : Eng full
Language                    : English
Default                     : No
Forced                      : No

Menu
00:00:00.000                : en:Chapter 01
00:12:17.194                : en:Chapter 02
00:24:11.199                : en:Chapter 03
00:34:18.389                : en:Chapter 04
00:48:00.919                : en:Chapter 05
00:59:37.574                : en:Chapter 06
01:10:59.463                : en:Chapter 07
01:20:11.848                : en:Chapter 08
01:25:52.605                : en:Chapter 09



Підтримати купівлю інших фільмів можна тут



Джерело: &
Подяка AngryBirdsUA та Hanway'ю за українську доріжку


 Трекер:    Зареєстрований   

Завантажити / скачати фільм українською



відео для новачків



 Зареєстрований:   2017-06-15 12:22
 Розмір:   1.29 GB 
 Оцінка фільму:   6.2/10 (Голосів: 34)
   
Інші релізи
Ваш часовий пояс: GMT + 2 Години

Нова тема   Відповісти