Хардкор / Hardcore Henry (2015) Remux 1080p Ukr/Eng | Sub Eng

Нові коментарі

Нова тема   Відповісти
Останній раз роздавалося sparrovv (2017-10-21)
Автор Повідомлення
AngryBirdsUA 
Свій


З нами з: 24.02.10
Востаннє: 21.10.17
Повідомлень: 3037

2017-06-15 10:29  
Хардкор / Hardcore Henry (2015) Remux 1080p Ukr/Eng | Sub Eng

Хардкор / Hardcore Henry (2015) Remux 1080p Ukr/Eng | Sub Eng


Жанр: бойовик, фантастика
Країна: США, Московія



Кінокомпанія: Bazelevs Production, Versus Pictures
Режисер: Ілля Найшуллер
Актори: Шарлто Коплі, Данііл Казловскій, Гейлі Беннетт, Кіріл Сєрєбрєннікав, Андрєй Дємєньтьєв, Сєрьґєй Шнурав, Александр Паль, Равшана Куркова, Паліна Філаненка, Канстантін Хабєнскій

Сюжет:
У повітряній лабораторії над Москвою проводяться наукові експерименти по створенню людей- кіборгів. Науковий співробітник Естель збирає кіборга Генрі, який пробуджується в своїй новій формі і єдине, що пам'ятає з минулого життя - тільки їх з Естель любов один одному. Не встигнувши зібрати мозаїку спогадів , Генрі втрачає дівчину з волі сліпого лиходія , альбіноса Акана, який викрадає Естель за допомогою телекінезу. Герой біжить по її слідах , зустрічаючи на шляху таємничого незнайомця Джиммі, який рятує Генрі життя і передає йому цінну інформацію, здатну пролити світло на минуле кіборга і місце, де знаходиться Естель. Але дорога до неї буде повна небезпек...


Тривалість: 01:36:24
Якість:
Відео:
кодек:
розмір кадру: 1920 х 1080
бітрейт: 33700 кб/с

Аудіо # 1:
мова: українська
переклад: багатоголосий закадровий
кодек: -HD MA 5.1
бітрейт: 4081 кб/с

Аудіо # 2:
мова: англійська
переклад: оригінал
кодек: -HD MA 5.1
бітрейт: 4256 кб/с

Субтитри # 1-2:
мова: англійська (повні, SDH)
тип: програмні (м'які)
формат: *.srt
Info
General
Unique ID : 243388441549771097370603907865460931576 (0xB71AE8A523FA6DBF87CE6CCBFA04FBF8)
Complete name : D:\Hardcore Henry (2015) Remux 1080p [Ukr. Eng] [Sub Eng] [Hurtom].
Format :
Format version : Version 4 / Version 2
File size : 28.5 GiB
Duration : 1 h 36 min
Overall bit rate mode : Variable
Overall bit rate : 42.1 Mb/s
Encoded date : UTC 2017-06-15 06:41:02
Writing application : mkvmerge v7.9.0 ('Birds') 64bit
Writing library : libebml v1.3.1 + libmatroska v1.4.2
Attachments : poster.jpg

Video
ID : 1
Format : AVC
Format/Info : Advanced Video Codec
Format profile : [email protected]
Format settings, CABAC : Yes
Format settings, ReFrames : 4 frames
Format settings, GOP : M=3, N=12
Codec ID : V_MPEG4/ISO/AVC
Duration : 1 h 36 min
Bit rate mode : Variable
Bit rate : 33.7 Mb/s
Maximum bit rate : 37.0 Mb/s
Width : 1 920 pixels
Height : 1 080 pixels
Display aspect ratio : 16:9
Frame rate mode : Constant
Frame rate : 23.976 (24000/1001) FPS
Color space : YUV
Chroma subsampling : 4:2:0
Bit depth : 8 bits
Scan type : Progressive
Bits/(Pixel*Frame) : 0.679
Stream size : 22.8 GiB (80%)
Language : English
Default : Yes
Forced : No

Audio #1
ID : 2
Format :
Format/Info : Digital Theater Systems
Format profile : MA / Core
Mode : 16
Format settings, Endianness : Big
Codec ID : A_DTS
Duration : 1 h 36 min
Bit rate mode : Variable / Constant
Bit rate : 4 081 kb/s / 1 509 kb/s
Channel(s) : 6 channels
Channel positions : Front: L C R, Side: L R, LFE
Sampling rate : 48.0 kHz
Frame rate : 93.750 FPS (512 spf)
Bit depth : 24 bits
Compression mode : Lossless / Lossy
Stream size : 2.76 GiB (10%)
Language : Ukrainian
Default : Yes
Forced : No

Audio #2
ID : 3
Format :
Format/Info : Digital Theater Systems
Format profile : MA / Core
Mode : 16
Format settings, Endianness : Big
Codec ID : A_DTS
Duration : 1 h 36 min
Bit rate mode : Variable / Constant
Bit rate : 4 256 kb/s / 1 509 kb/s
Channel(s) : 6 channels
Channel positions : Front: L C R, Side: L R, LFE
Sampling rate : 48.0 kHz
Frame rate : 93.750 FPS (512 spf)
Bit depth : 24 bits
Compression mode : Lossless / Lossy
Stream size : 2.88 GiB (10%)
Title : Original
Language : English
Default : No
Forced : No

Text #1
ID : 4
Format : UTF-8
Codec ID : S_TEXT/UTF8
Codec ID/Info : UTF-8 Plain Text
Duration : 1 h 32 min
Bit rate : 28 b/s
Count of elements : 680
Stream size : 19.1 KiB (0%)
Title : Full
Language : English
Default : No
Forced : No

Text #2
ID : 5
Format : UTF-8
Codec ID : S_TEXT/UTF8
Codec ID/Info : UTF-8 Plain Text
Duration : 1 h 32 min
Bit rate : 38 b/s
Count of elements : 1042
Stream size : 26.2 KiB (0%)
Title : SDH
Language : English
Default : No
Forced : No

Menu
00:00:00.000 : en:00:00:00.000
00:04:04.494 : en:00:04:04.494
00:08:36.641 : en:00:08:36.641
00:14:12.935 : en:00:14:12.935
00:18:45.333 : en:00:18:45.333
00:22:38.816 : en:00:22:38.816
00:26:12.237 : en:00:26:12.237
00:30:05.345 : en:00:30:05.345
00:34:30.193 : en:00:34:30.193
00:37:44.429 : en:00:37:44.429
00:42:19.537 : en:00:42:19.537
00:47:05.406 : en:00:47:05.406
00:52:51.085 : en:00:52:51.085
00:56:00.482 : en:00:56:00.482
01:03:47.824 : en:01:03:47.824
01:11:23.988 : en:01:11:23.988
01:15:54.884 : en:01:15:54.884
01:22:04.670 : en:01:22:04.670
01:24:10.045 : en:01:24:10.045
01:29:31.116 : en:01:29:31.116



Подяка пану Hanway за синхронізацію доріжки.


Джерело:


Золотий реліз (завантажене не впливає на рейтинг)
 Трекер:    Зареєстрований   

Завантажити / скачати фільм українською



відео для новачків



 Зареєстрований:   2017-06-15 10:29
 Розмір:   28.46 GB 
 Оцінка фільму:   2.5/10 (Голосів: 24)
   
Інші релізи
   Хардкор / Hardcore Henry (2015) 720p Ukr/Eng | Sub Eng 11FrYkT  4 / 0   5.07 GB   2017-06-15 20:23 
   Хардкор / Hardcore Henry (2015) Covenant  4 / 0   1.46 GB   2017-06-15 11:24 
   Хардкор / Hardcore Henry (2015) AVC Ukr/Eng | Sub Eng Загора  5 / 0   2.06 GB   2016-07-14 09:29 
   Хардкор / Hardcore Henry (2015) 1080p Ukr/Eng | Sub Eng Bod_zik99  3 / 0   3.92 GB   2016-06-22 13:16 
Oleksa9 
Поважний учасник


З нами з: 17.05.12
Востаннє: 17.10.17
Повідомлень: 242

2017-06-15 11:19  
московія це одразу ні
OL3X 
VIP


З нами з: 25.11.15
Востаннє: 22.10.17
Повідомлень: 409

2017-06-15 18:07  
чудовий фільм
romaxa11 
Новенький


З нами з: 05.09.15
Востаннє: 19.10.17
Повідомлень: 5

2017-06-16 18:14  
Я спробую прожити без нього
paulsmile 
Новенький


З нами з: 16.03.15
Востаннє: 21.10.17
Повідомлень: 2

2017-06-17 09:02  
дивився в кiно, не поганий, дуже не поганий фiльм
zdlr 
Частий відвідувач


З нами з: 07.12.12
Востаннє: 20.10.17
Повідомлень: 31

2017-06-17 18:53  
Мабудь що ні.

Додано через 57 секунд:

"Актори: Шарлто Коплі, Данііл Казловскій, Гейлі Беннетт, Кіріл Сєрєбрєннікав, Андрєй Дємєньтьєв, Сєрьґєй Шнурав, Александр Паль, Равшана Куркова, Паліна Філаненка, Канстантін Хабєнскій" - це весело.

Rabotnik UA 
Новенький


З нами з: 31.08.15
Востаннє: 21.10.17
Повідомлень: 6

2017-06-22 23:16  
чому так категорично ні московії на екрані?
я кажу однозначне так фільму, в якому спалюють москву, стирають ядерним вибухом чи трапляється якийсь катаклізм, що прибирає її з мапи.
а от через акторський склад таки не буду дивитись

olthik 
Свій


З нами з: 02.03.16
Востаннє: 19.10.17
Повідомлень: 67

2017-06-26 23:52  
Може заради Габенського і качну.
Ваш часовий пояс: GMT + 2 Години

Нова тема   Відповісти