Кунг-фу Кролик: Повелитель вогню (Legend of a Rabbit: The Martial of Fire) / Tu Xia Chuan Qi: Qing Li Chuan Shuo (2015) 1080p

Нові коментарі

Нова тема   Відповісти
Автор Повідомлення
Anonymous 







2017-06-13 17:09  
Кунг-фу Кролик: Повелитель вогню / Legend of a Rabbit: The Martial of Fire / Tu Xia Chuan Qi: Qing Li Chuan Shuo (2015) 1080p

Кунг-фу Кролик: Повелитель вогню (Legend of a Rabbit: The Martial of Fire) / Tu Xia Chuan Qi: Qing Li Chuan Shuo (2015) 1080p


Жанр: анімація, комедія, пригодницький, сімейний
Країна: Китай



Кінокомпанія: Shanghai Toonmax Media Co.
Режисер: Дейк Донг / Dake Dong
Ролі озвучують: Юньвей Хе / Yunwei He, Лі Хуанг / Lei Huang, Цзишань Ян / Zishan Yang

Сюжет:
Щорічний поєдинок зібрав безліч майстрів бойових мистецтв. Безстрашні тигри, сміливі панди і сильні буйволи змагалися за звання кращого майстра. І хто б міг подумати, що перемогу здобуде м'який, пухнастий і миролюбний Кролик! Роки наполегливих тренувань не минули даремно. Але без магічного каменю, що дає силу, перемоги годі було б чекати. Тепер Кроликові довірили важливу і відповідальну місію – він повинен захищати своє поселення. Щасливі спокійні дні тривали не довго. Підступні лиходії дізналися про те, що саме надає героєві сили. Вони попри все хочуть заволодіти безцінним амулетом. Кроликові потрібно не тільки відстояти мир в рідному селі, але і не дати хитрунам викрасти магічний камінь.


Тривалість: 01:35:29
Якість: 1080p
Відео:
кодек:
розмір кадру: 1920 х 804
бітрейт: 4407 кб/с
примітка: назва російською мовою

Аудіо:
мова: українська
переклад: багатоголосий закадровий
кодек: 2.0
бітрейт: 192 кб/с

*оригінальна доріжка відсутня у вільному доступі на момент створення релізу

Збережено оригінальні розділи
Info
Код:
Complete name               : Tu Xia Chuan Qi - Qing Li Chuan Shuo (2015) [Ukr] 1080p [Hurtom].
Format                      :
Format version              : Version 4 / Version 2
File size                   : 3.13 GiB
Duration                    : 1 h 35 min
Overall bit rate            : 4 697 kb/s
Movie name                  : Кунг-фу Кролик: Повелитель вогню / Legend of a Rabbit: The Martial of Fire / Tu Xia Chuan Qi:Qing Li Chuan Shuo (2015) [Ukr] 1080p [Hurtom]
Released date               : 2015
Cover                       : Yes
Comment                     : http://www.imdb.com/title/tt4838316/
Attachments                 : cover.jpg
ARTIST                      : Юньвей Хе / Yunwei He, Лі Хуанг / Lei Huang, Цзишань Ян / Zishan Yang
DIRECTOR                    : Дейк Донг / Dake Dong
GENRE                       : анімація, комедія, пригодницький, сімейний
SYNOPSIS                    : Щорічний поєдинок зібрав безліч майстрів бойових мистецтв. Безстрашні тигри, сміливі панди і сильні буйволи змагалися за звання кращого майстра. І хто б міг подумати, що перемогу здобуде м'який, пухнастий і миролюбний Кролик! Роки наполегливих тренувань не минули даремно. Але без магічного каменю, що дає силу, перемоги годі було б чекати. Тепер Кроликові довірили важливу і відповідальну місію – він повинен захищати своє поселення. Щасливі спокійні дні тривали не довго. Підступні лиходії дізналися про те, що саме надає героєві сили. Вони попри все хочуть заволодіти безцінним амулетом. Кроликові потрібно не тільки відстояти мир в рідному селі, але і не дати хитрунам викрасти магічний камінь.
Url                         : https://toloka.to/t82409

Video
ID                          : 1
Format                      : AVC
Format/Info                 : Advanced Video Codec
Format profile              : [email protected]
Format settings, CABAC      : Yes
Format settings, ReFrames   : 5 frames
Codec ID                    : V_MPEG4/ISO/AVC
Duration                    : 1 h 35 min
Bit rate                    : 4 502 kb/s
Width                       : 1 920 pixels
Height                      : 804 pixels
Display aspect ratio        : 2.40:1
Frame rate mode             : Constant
Frame rate                  : 24.000 FPS
Color space                 : YUV
Chroma subsampling          : 4:2:0
Bit depth                   : 8 bits
Scan type                   : Progressive
Bits/(Pixel*Frame)          : 0.122
Stream size                 : 3.00 GiB (96%)
Title                       : Кунг-фу Кролик: Повелитель вогню / Legend of a Rabbit: The Martial of Fire / Tu Xia Chuan Qi: Qing Li Chuan Shuo (2015) 1080p
Language                    : English
Default                     : Yes
Forced                      : No
Color range                 : Limited
Color primaries             : BT.709
Transfer characteristics    : BT.709
Matrix coefficients         : BT.709

Audio
ID                          : 2
Format                      : AC-3
Format/Info                 : Audio Coding 3
Format settings, Endianness : Big
Codec ID                    : A_AC3
Duration                    : 1 h 35 min
Bit rate mode               : Constant
Bit rate                    : 192 kb/s
Channel(s)                  : 2 channels
Channel positions           : Front: L R
Sampling rate               : 48.0 kHz
Frame rate                  : 31.250 FPS (1536 spf)
Bit depth                   : 16 bits
Compression mode            : Lossy
Stream size                 : 131 MiB (4%)
Title                       : MVO [Volya Cine+ Kids HD] 2.0 192 Kbps [Hurtom-Electroz,Sando7]
Language                    : Ukrainian
Service kind                : Complete Main
Default                     : Yes
Forced                      : No

Menu
00:00:00.000                : en:00:00:00
00:05:00.000                : en:00:05:00
00:11:09.000                : en:00:11:09
00:17:22.000                : en:00:17:22
00:22:23.000                : en:00:22:23
00:27:50.000                : en:00:27:50
00:33:19.000                : en:00:33:19
00:39:40.000                : en:00:39:40
00:45:38.000                : en:00:45:38
00:50:01.000                : en:00:50:01
00:55:19.000                : en:00:55:19
01:00:37.000                : en:01:00:37
01:05:55.000                : en:01:05:55
01:12:18.000                : en:01:12:18
01:18:02.000                : en:01:18:02
01:23:37.000                : en:01:23:37
01:30:10.000                : en:01:30:10


Джерело: &
Подяка Sando7 та Electroz'у за українську доріжку.


 Трекер:    Зареєстрований   

Завантажити / скачати мультфільм українською



відео для новачків



 Зареєстрований:   2017-06-13 19:02
 Розмір:   3.13 GB 
 Оцінка мультфільму:   3.9/10 (Голосів: 15)
   
Ваш часовий пояс: GMT + 2 Години

Нова тема   Відповісти