Крок уперед 2: Вулиці/ Step Up 2: The Streets (2008) 1080p Ukr/Eng | sub Eng

Нові коментарі

Нова тема   Відповісти
Автор Повідомлення
НеЗупиняйПродакшн 
Відео Гуртом - озвучення
Відео Гуртом - озвучення


З нами з: 28.07.15
Востаннє: 24.09.17
Повідомлень: 366

2017-06-12 20:11  
Крок уперед 2: Вулиці/ Step Up 2: The Streets (2008) 1080p Ukr/Eng | sub Eng

Крок уперед 2: Вулиці/ Step Up 2: The Streets (2008) 1080p Ukr/Eng | sub Eng


Жанр: мелодрама, музичний, танці
Країна: США



Кінокомпанія: Offspring Entertainment, Touchstone Pictures, Summit Entertainment
Режисер: Джон Чу
Актори: Роберт Гоффман, Браяна Евіґан, Адам Севані, Вілл Кемп, Кесі Вентура

Сюжет:
Енді любить музику і обожнює танці, якими вона займається з самого дитинства. Вона одна з учасників команди «4-1-0». Разом зі своєю командою вона виступає на різних заходах, їздить на конкурси, танцює в клубах і одночасно з цим готується виступити на конкурсі мрії всього її життя - «Вулиці».Проте, маючи численні конфлікти з правоохоронцями закону, змушена стати перед жорстким вибором: або почати своє життя з нуля або виїхати назавжди з цього міста. Вона вибирає нове життя, не заплямоване конфліктами з поліцією, і в цьому їй вирішує допомогти Тайлер Гейд. Головній героїні вдається вдало вступити в знамениту школу мистецтв у Меріленді. Але, потрапивши в нову школу, вона розуміє, що їй доведеться чимось пожертвувати, адже вона не встигає відвідувати всі тренування. Зрештою, її виганяють з власної команди. Тепер у Енді є мета: вона вирішує створити свою особисту команду, щоб довести свою приналежність до професійного світу танцюристів.


Тривалість: 01:37:50
Якість:
Відео:
кодек:
розмір кадру: 1920 х 1080
бітрейт: 11.3 Мб/с

Аудіо # 1:
мова: українська
озвучення: професійне багатоголосе закадрове (3 голоси)
кодек: 5.1
бітрейт: 1 510 кб/с

Озвучено студією "НеЗупиняйПродакшн" на замовлення користувача NemoInFire


Аудіо # 2:
мова: англійська
переклад: оригінал
кодек: 5.1
бітрейт: 1 510 кб/с

Субтитри:
мова: англійська
тип: програмні (м'які)
формат: *.srt
Скріншоти





Info
Format :
Format version : Version 4 / Version 2
File size : 9.78 GiB
Duration : 1 h 37 min
Overall bit rate : 14.3 Mb/s
Movie name : Крок уперед 2: Вулиці | Озвучено на НеЗупиняйПродакшн
Encoded date : UTC 2017-06-12 10:22:13
Writing application : mkvmerge v8.3.0 ('Over the Horizon') 64bit
Writing library : libebml v1.3.1 + libmatroska v1.4.2
Cover : Yes
Attachments : cover.jpg

Video
ID : 1
Format : AVC
Format/Info : Advanced Video Codec
Format profile : [email protected]
Format settings, CABAC : Yes
Format settings, ReFrames : 4 frames
Format settings, GOP : N=1
Codec ID : V_MPEG4/ISO/AVC
Duration : 1 h 37 min
Bit rate : 11.3 Mb/s
Width : 1 920 pixels
Height : 1 040 pixels
Display aspect ratio : 1.85:1
Frame rate mode : Constant
Frame rate : 23.976 FPS
Color space : YUV
Chroma subsampling : 4:2:0
Bit depth : 8 bits
Scan type : Progressive
Bits/(Pixel*Frame) : 0.236
Stream size : 7.71 GiB (79%)
Title : ViDEO
Writing library : core 60 r892M ad1d7a4
Encoding settings : cabac=1 / ref=4 / deblock=1:-3:-3 / analyse=0x3:0x113 / me=umh / subme=7 / rdcmp=psy / brdo=1 / mixed_ref=1 / me_range=24 / chroma_me=1 / trellis=2 / 8x8dct=1 / cqm=2 / deadzone=21,11 / chroma_qp_offset=0 / threads=6 / nr=0 / decimate=1 / mbaff=0 / bframes=3 / b_pyramid=1 / b_adapt=1 / b_bias=0 / direct=1 / wpredb=1 / bime=1 / keyint=250 / keyint_min=25 / scenecut=40(pre) / rc=2pass / bitrate=11287 / ratetol=1.0 / rceq='blurCplx^(1-qComp)' / qcomp=1.00 / qpmin=10 / qpmax=51 / qpstep=4 / cplxblur=20.0 / qblur=0.5 / ip_ratio=1.40 / pb_ratio=1.30 / aq=2:1.00
Language : English
Default : Yes
Forced : No

Audio #1
ID : 2
Format :
Format/Info : Digital Theater Systems
Mode : 16
Format settings, Endianness : Big
Codec ID : A_DTS
Duration : 1 h 37 min
Bit rate mode : Constant
Bit rate : 1 510 kb/s
Channel(s) : 6 channels
Channel positions : Front: L C R, Side: L R, LFE
Sampling rate : 48.0 kHz
Frame rate : 93.750 FPS (512 spf)
Bit depth : 24 bits
Compression mode : Lossy
Stream size : 1.03 GiB (11%)
Title : Українська (НеЗупиняйПродакшн)
Language : Ukrainian
Default : Yes
Forced : No

Audio #2
ID : 3
Format :
Format/Info : Digital Theater Systems
Mode : 16
Format settings, Endianness : Big
Codec ID : A_DTS
Duration : 1 h 37 min
Bit rate mode : Constant
Bit rate : 1 510 kb/s
Channel(s) : 6 channels
Channel positions : Front: L C R, Side: L R, LFE
Sampling rate : 48.0 kHz
Frame rate : 93.750 FPS (512 spf)
Bit depth : 24 bits
Compression mode : Lossy
Stream size : 1.03 GiB (11%)
Title : 5.1 1536 Kbps
Language : English
Default : No
Forced : No

Text
ID : 4
Format : UTF-8
Codec ID : S_TEXT/UTF8
Codec ID/Info : UTF-8 Plain Text
Duration : 1 h 35 min
Bit rate : 60 b/s
Count of elements : 1168
Stream size : 42.2 KiB (0%)
Language : English
Default : No
Forced : No


Авторський реліз (завантажувати можна без реєстрації)
 Трекер:    Зареєстрований   

Завантажити / скачати фільм українською



відео для новачків



 Зареєстрований:   2017-06-12 20:11
 Розмір:   9.78 GB 
 Оцінка фільму:   8.8/10 (Голосів: 5)
   
Ваш часовий пояс: GMT + 2 Години

Нова тема   Відповісти