Проект "Альманах" / Континуум / Project Almanac (2015) 720p Ukr/Eng | Sub Ukr/Eng

Нові коментарі

Нова тема   Відповісти
Автор Повідомлення
Anonymous 







2017-06-12 12:02  
Проект "Альманах" / Континуум / Project Almanac (2015) 720p Ukr/Eng | Sub Ukr/Eng

Проект "Альманах" / Континуум / Project Almanac (2015) 720p Ukr/Eng | Sub Ukr/Eng
Альтернативний постер



Жанр: фантастика, трилер, пригоди
Країна: США



Кінокомпанія: Insurge Pictures, Platinum Dunes, MTV Films
Режисер: Дін Ізраелайт
Актори: Джонні Вестон, Софія Блек-Д'Еліа, Сем Лернер, Аллен Єванґеліста, Вірджинія Ґарднер, Емі Ландекер, Ґері Вікс, Максен Лінтц, Ґері Ґраббс, Мішель ДеФрайтс

Сюжет:
Одного разу після перегляду старої плівки з дня народження вже дорослий іменинник зауважив себе «справжнього» у відображенні на відео. Його друзі знайшли креслення таємничого пристрою, схожого на машину часу. Вони вирішили доробити її і випробувати, щоб повернутися в минуле і виправити деякі помилки. Але що буде, якщо група відв'язних тінейджерів випадково заволодіє машиною часу? Однозначно, буде весело! Поки хтось не порушить правила, і веселий жарт чи не обернеться кошмаром. Треба поспішати відновити континуум, поки світ остаточно не зруйновано!


Тривалість: 01:46:12
Якість: 720p [TayTO]
Відео:
кодек:
розмір кадру: 1280x534
бітрейт: 7967 кб/с [crf=16.8]

Аудіо # 1:
мова: українська
переклад: багатоголосий закадровий
кодек: 5.1
бітрейт: 640 кб/с

Аудіо # 2:
мова: українська
переклад: багатоголосий закадровий
кодек: 2.0
бітрейт: 192 кб/с
примітка: озвучення обох укр.доріжок однакове, воно з одного запису, доріжки відрізняються лише кількістю каналів та бітрейтом

Аудіо # 3:
мова: англійська
переклад: оригінал
кодек: 5.1
бітрейт: 640 кб/с

Субтитри # 1-2:
мова: українська (форсовані, повні)
тип: програмні (м'які)
формат: srt

Субтитри # 2-3:
мова: англійська (SDH, SDH кольорові)
тип: програмні (м'які)
формат: srt

Збережено оригінальні розділи, як на Blu-ray
Info
Код:
Complete name               : Project Almanac (2015) [Ukr,Eng sub.Ukr,Eng] 720p [Hurtom].
Format                      :
Format version              : Version 4 / Version 2
File size                   : 7.01 GiB
Duration                    : 1 h 46 min
Overall bit rate            : 9 443 kb/s
Movie name                  : Проект "Альманах" / Континуум / Project Almanac (2015) [Ukr,Eng sub.Ukr,Eng] 720p [Hurtom]
Released date               : 2015
Cover                       : Yes
Comment                     : http://www.imdb.com/title/tt2436386/
Attachments                 : cover.jpg
ARTIST                      : Джонні Вестон / Jonny Weston, Софія Блек-Д'Еліа / Sofia Black-D'Elia, Сем Лернер / Sam Lerner, Аллен Єванґеліста / Allen Evangelista, Вірджинія Ґарднер / Virginia Gardner, Емі Ландекер / Amy Landecker, Ґері Вікс / Gary Weeks, Максен Лінтц / Macsen Lintz, Ґері Ґраббс / Gary Grubbs, Мішель ДеФрайтс / Michelle DeFraites та інші
DIRECTOR                    : Дін Ізраелайт / Dean Israelite
GENRE                       : фантастика, трилер, пригодницький
SYNOPSIS                    : Одного разу після перегляду старої плівки з дня народження вже дорослий іменинник зауважив себе «справжнього» у відображенні на відео. Його друзі знайшли креслення таємничого пристрою, схожого на машину часу. Вони вирішили доробити її і випробувати, щоб повернутися в минуле і виправити деякі помилки. Але що буде, якщо група відв'язних тінейджерів випадково заволодіє машиною часу? Однозначно, буде весело! Поки хтось не порушить правила, і веселий жарт чи не обернеться кошмаром. Треба поспішати відновити континуум, поки світ остаточно не зруйнований!
Url                         : https://toloka.to/t82387

Video
ID                          : 1
Format                      : AVC
Format/Info                 : Advanced Video Codec
Format profile              : [email protected]
Format settings, CABAC      : Yes
Format settings, ReFrames   : 12 frames
Codec ID                    : V_MPEG4/ISO/AVC
Duration                    : 1 h 46 min
Bit rate                    : 7 967 kb/s
Width                       : 1 280 pixels
Height                      : 534 pixels
Display aspect ratio        : 2.40:1
Frame rate mode             : Constant
Frame rate                  : 23.976 (24000/1001) FPS
Color space                 : YUV
Chroma subsampling          : 4:2:0
Bit depth                   : 8 bits
Scan type                   : Progressive
Bits/(Pixel*Frame)          : 0.486
Stream size                 : 5.91 GiB (84%)
Title                       : Проект "Альманах" / Континуум / Project Almanac (2015) 720p [TayTO]
Writing library             : core 142 r2431+42 c69a006 tMod [[email protected] X86_64]
Encoding settings           : cabac=1 / ref=12 / deblock=1:-3:-3 / analyse=0x3:0x133 / me=tesa / subme=11 / psy=1 / fade_compensate=0.00 / psy_rd=1.08:0.00 / mixed_ref=1 / me_range=32 / chroma_me=1 / trellis=2 / 8x8dct=1 / cqm=0 / deadzone=21,11 / fast_pskip=1 / chroma_qp_offset=-2 / threads=12 / lookahead_threads=3 / sliced_threads=0 / nr=0 / decimate=0 / interlaced=0 / bluray_compat=0 / constrained_intra=0 / fgo=0 / bframes=10 / b_pyramid=2 / b_adapt=2 / b_bias=0 / direct=3 / weightb=1 / open_gop=0 / weightp=2 / keyint=250 / keyint_min=23 / scenecut=40 / intra_refresh=0 / rc_lookahead=60 / rc=crf / mbtree=0 / crf=16.8000 / qcomp=0.60 / qpmin=0:0:0 / qpmax=69:69:69 / qpstep=4 / vbv_maxrate=62500 / vbv_bufsize=78125 / crf_max=0.0 / nal_hrd=none / filler=0 / ip_ratio=1.10 / pb_ratio=1.10 / aq=1:0.65 / aq-sensitivity=10.00 / aq-factor=1.00:1.00:1.00 / aq2=0 / aq3=0 / zones=50,526,crf=15/944,966,crf=14/145758,152793,crf=21
Language                    : English
Default                     : Yes
Forced                      : No
Color range                 : Limited
Matrix coefficients         : BT.709

Audio #1
ID                          : 2
Format                      : AC-3
Format/Info                 : Audio Coding 3
Format settings, Endianness : Big
Codec ID                    : A_AC3
Duration                    : 1 h 46 min
Bit rate mode               : Constant
Bit rate                    : 640 kb/s
Channel(s)                  : 6 channels
Channel positions           : Front: L C R, Side: L R, LFE
Sampling rate               : 48.0 kHz
Frame rate                  : 31.250 FPS (1536 spf)
Bit depth                   : 16 bits
Compression mode            : Lossy
Delay relative to video     : 23 ms
Stream size                 : 486 MiB (7%)
Title                       : MVO [Novyj] 5.1 640 Kbps [Hurtom-famous37,slavik_v_z]
Language                    : Ukrainian
Service kind                : Complete Main
Default                     : Yes
Forced                      : No

Audio #2
ID                          : 3
Format                      : AC-3
Format/Info                 : Audio Coding 3
Format settings, Endianness : Big
Codec ID                    : A_AC3
Duration                    : 1 h 46 min
Bit rate mode               : Constant
Bit rate                    : 192 kb/s
Channel(s)                  : 2 channels
Channel positions           : Front: L R
Sampling rate               : 48.0 kHz
Frame rate                  : 31.250 FPS (1536 spf)
Bit depth                   : 16 bits
Compression mode            : Lossy
Stream size                 : 146 MiB (2%)
Title                       : MVO [Novyj] 2.0 192 Kbps [Hurtom-Gelios,slavik_v_z]
Language                    : Ukrainian
Service kind                : Complete Main
Default                     : No
Forced                      : No

Audio #3
ID                          : 4
Format                      : AC-3
Format/Info                 : Audio Coding 3
Format settings, Endianness : Big
Codec ID                    : A_AC3
Duration                    : 1 h 46 min
Bit rate mode               : Constant
Bit rate                    : 640 kb/s
Channel(s)                  : 6 channels
Channel positions           : Front: L C R, Side: L R, LFE
Sampling rate               : 48.0 kHz
Frame rate                  : 31.250 FPS (1536 spf)
Bit depth                   : 16 bits
Compression mode            : Lossy
Stream size                 : 486 MiB (7%)
Title                       : Original, 5.1 640 Kbps
Language                    : English
Service kind                : Complete Main
Default                     : No
Forced                      : No

Text #1
ID                          : 5
Format                      : UTF-8
Codec ID                    : S_TEXT/UTF8
Codec ID/Info               : UTF-8 Plain Text
Duration                    : 2 s 80 ms
Bit rate                    : 246 b/s
Count of elements           : 1
Stream size                 : 64.0 Bytes (0%)
Title                       : Ukr forced
Language                    : Ukrainian
Default                     : Yes
Forced                      : Yes

Text #2
ID                          : 6
Format                      : UTF-8
Codec ID                    : S_TEXT/UTF8
Codec ID/Info               : UTF-8 Plain Text
Duration                    : 1 h 45 min
Bit rate                    : 135 b/s
Count of elements           : 2118
Stream size                 : 105 KiB (0%)
Title                       : Ukr full [Blu-ray CEE]
Language                    : Ukrainian
Default                     : No
Forced                      : No

Text #3
ID                          : 7
Format                      : UTF-8
Codec ID                    : S_TEXT/UTF8
Codec ID/Info               : UTF-8 Plain Text
Duration                    : 1 h 40 min
Bit rate                    : 104 b/s
Count of elements           : 2358
Stream size                 : 77.2 KiB (0%)
Title                       : Eng SDH
Language                    : English
Default                     : No
Forced                      : No

Text #4
ID                          : 8
Format                      : UTF-8
Codec ID                    : S_TEXT/UTF8
Codec ID/Info               : UTF-8 Plain Text
Duration                    : 1 h 40 min
Bit rate                    : 144 b/s
Count of elements           : 2358
Stream size                 : 106 KiB (0%)
Title                       : Eng SDH COLORED
Language                    : English
Default                     : No
Forced                      : No

Menu
00:00:00.000                : en:00:00:00.000
00:07:56.309                : en:00:07:56.309
00:15:20.211                : en:00:15:20.211
00:23:49.803                : en:00:23:49.803
00:31:15.665                : en:00:31:15.665
00:39:19.274                : en:00:39:19.274
00:46:58.274                : en:00:46:58.274
00:54:11.957                : en:00:54:11.957
01:00:55.485                : en:01:00:55.485
01:09:43.304                : en:01:09:43.304
01:16:24.371                : en:01:16:24.371
01:23:07.733                : en:01:23:07.733
01:32:20.618                : en:01:32:20.618
01:41:19.323                : en:01:41:19.323


Джерело: &
Подяка slavik_v_z, famous37 та Gelios'у за український звук та постер.


 Трекер:    Зареєстрований   

Завантажити / скачати фільм українською



відео для новачків



 Зареєстрований:   2017-06-12 20:52
 Розмір:   7.01 GB 
 Оцінка фільму:   5.3/10 (Голосів: 21)
   
demetrius52 
Свій


З нами з: 02.04.17
Востаннє: 13.12.17
Повідомлень: 99

2017-06-13 21:56  
1080 планується?
Anonymous 







2017-06-13 21:59  
demetrius52 написано:
1080 планується?

ріп? ні, немає сенсу, бо якісний він буде важити майже як ремукс.

Додано через 1 хвилину 49 секунд:

Даний відеоряд погано стискається - ефект "тряски зйомки з рук" + значна зернистість.

mzl 
Частий відвідувач


З нами з: 19.12.15
Востаннє: 13.12.17
Повідомлень: 34

2017-06-18 03:25  
початок фільму ну дуууже затягнутий, але кінцівка все компенсує, оцінка : тверде позитивне 7
Ваш часовий пояс: GMT + 2 Години

Нова тема   Відповісти