Потяг до Пусану / Train to Busan / Busanhaeng / 부산행 (2016) 1080p Ukr/Kor

Нові коментарі

Нова тема   Відповісти
Автор Повідомлення
IronBee 
Свій


З нами з: 08.02.10
Востаннє: 19.08.17
Повідомлень: 62

2017-06-11 23:08  
Потяг до Пусану / Train to Busan / Busanhaeng / 부산행 (2016) 1080p Ukr/Kor

Потяг до Пусану / Train to Busan / Busanhaeng / 부산행 (2016) 1080p Ukr/Kor


Жанр: трилер, жахи, екшн
Країна: Південна Корея



Кінокомпанія: Next Entertainment World, RedPeter Film
Режисер: Йон Сан-хо
Актори: Кон Ю, Ма Дон-сік, Чон Ю-ми, Кім Су-ан, Кім І-сон, Чхве У-щик, Ан Со-хи, Чхве Кве Хва, Чон Сік-ен, Е Су-джон, Пак Мен-нок, Кім Юль-хо, Кім Чхан-хван, Пек Ін-Гвон, Чан Хек-чин та інші

Сюжет:
Через загадкові спалахи вірусу оголошено надзвичайний стан. Швидкісний потяг-експрес в Пусан став тимчасовим притулком для тих, хто зміг вирватися з охопленого загадковою епідемією Сеула. Випадкові пасажири не припускали, що їхній квиток на цей поїзд стане щасливим, але от чи надовго — ласкаво просимо на борт і постарайтеся залишитися в живих.


Тривалість: 01:58:08
Якість: 1080p
Відео:
кодек:
розмір кадру: 1920 х 1040
бітрейт: 15.0 Mb/s

Аудіо: # 1
мова: українська
переклад: багатоголосий закадровий
кодек: 2.0
бітрейт: 192 кб/с

Аудіо: # 2
мова: корейська
переклад: оригінал
кодек: 5.1
бітрейт: 640 кб/с

Джерело озвучення:
Info
General
Unique ID : 196669869941389071169201571001656948220 (0x93F53D3A1B4A7F358BD500BFFB2C35FC)
Complete name : D:\Films\Потяг до Пусану Train to Busan Busanhaeng 부산행 (2016) 1080p Ukr Kor.
Format :
Format version : Version 4 / Version 2
File size : 13.1 GiB
Duration : 1 h 58 min
Overall bit rate : 15.8 Mb/s
Encoded date : UTC 2017-06-11 20:20:51
Writing application : mkvmerge v12.0.0 ('Trust / Lust') 64bit
Writing library : libebml v1.3.4 + libmatroska v1.4.5

Video
ID : 1
Format : AVC
Format/Info : Advanced Video Codec
Format profile : [email protected]
Format settings, CABAC : Yes
Format settings, ReFrames : 4 frames
Codec ID : V_MPEG4/ISO/AVC
Duration : 1 h 58 min
Bit rate : 15.0 Mb/s
Width : 1 920 pixels
Height : 1 040 pixels
Display aspect ratio : 1.85:1
Frame rate mode : Constant
Frame rate : 23.976 (24000/1001) FPS
Color space : YUV
Chroma subsampling : 4:2:0
Bit depth : 8 bits
Scan type : Progressive
Bits/(Pixel*Frame) : 0.313
Stream size : 12.4 GiB (95%)
Writing library : core 148 r2597 e86f3a1
Encoding settings : cabac=1 / ref=4 / deblock=1:-3:-3 / analyse=0x3:0x113 / me=umh / subme=11 / psy=1 / psy_rd=1.00:0.00 / mixed_ref=1 / me_range=48 / chroma_me=1 / trellis=2 / 8x8dct=1 / cqm=0 / deadzone=21,11 / fast_pskip=0 / chroma_qp_offset=-2 / threads=12 / lookahead_threads=3 / sliced_threads=0 / nr=0 / decimate=0 / interlaced=0 / bluray_compat=0 / constrained_intra=0 / bframes=11 / b_pyramid=2 / b_adapt=2 / b_bias=0 / direct=3 / weightb=1 / open_gop=0 / weightp=2 / keyint=240 / keyint_min=24 / scenecut=40 / intra_refresh=0 / rc_lookahead=40 / rc=crf / mbtree=0 / crf=18.8 / qcomp=0.70 / qpmin=0 / qpmax=69 / qpstep=4 / vbv_maxrate=50000 / vbv_bufsize=40000 / crf_max=0.0 / nal_hrd=none / filler=0 / ip_ratio=1.25 / pb_ratio=1.15 / aq=3:0.85
Language : English
Default : Yes
Forced : No

Audio #1
ID : 2
Format : AC-3
Format/Info : Audio Coding 3
Mode extension : CM (complete main)
Format settings, Endianness : Big
Codec ID : A_AC3
Duration : 1 h 58 min
Bit rate mode : Constant
Bit rate : 192 kb/s
Channel(s) : 2 channels
Channel positions : Front: L R
Sampling rate : 48.0 kHz
Frame rate : 31.250 FPS (1536 spf)
Bit depth : 16 bits
Compression mode : Lossy
Stream size : 162 MiB (1%)
Default : Yes
Forced : No

Audio #2
ID : 3
Format : AC-3
Format/Info : Audio Coding 3
Mode extension : CM (complete main)
Format settings, Endianness : Big
Codec ID : A_AC3
Duration : 1 h 58 min
Bit rate mode : Constant
Bit rate : 640 kb/s
Channel(s) : 6 channels
Channel positions : Front: L C R, Side: L R, LFE
Sampling rate : 48.0 kHz
Frame rate : 31.250 FPS (1536 spf)
Bit depth : 16 bits
Compression mode : Lossy
Stream size : 541 MiB (4%)
Default : No
Forced : No
Скріншоти





Джерело: &
Особиста оцінка: 10 - без зайвих вагань рекомендую всім!


 Трекер:    Зареєстрований   

Завантажити / скачати фільм українською



відео для новачків



 Зареєстрований:   2017-06-11 23:37
 Розмір:   13.06 GB 
 Оцінка фільму:   9.4/10 (Голосів: 10)
   
Electroz 
Відео Гуртом - підтримка та поширення
Відео Гуртом - підтримка та поширення


З нами з: 18.09.14
Востаннє: 19.08.17
Повідомлень: 1493

2017-06-11 23:10  
Цитата:
Оригінальна доріжка обов'язкова у всіх релізах HD, крім 720p-mini та багатосерійних.

IronBee 
Свій


З нами з: 08.02.10
Востаннє: 19.08.17
Повідомлень: 62

2017-06-11 23:15  
зрозумів
Myishko 
Новенький


З нами з: 21.04.17
Востаннє: 15.08.17
Повідомлень: 1

2017-06-12 07:55  
-Нормальний об'єм фільму 1,5-2 GB .
MasterYura 
Відео Гуртом - фільмокрай
Відео Гуртом - фільмокрай


З нами з: 21.11.09
Востаннє: 19.08.17
Повідомлень: 979

2017-06-12 09:02  
IronBee , перш за все - дякую за реліз. Бачу це твій перший реліз!)
єдине - залишилось декілька виправлень в оформленні:
список виправлень

1. поправа назві теми та в заголовку.
по прикладу із роздачі: https://toloka.to/t82216:
здаєтсья так: Потяг до Пусану/ Train to Busan / Busanhaeng / 부산행 (2016) 1080p Ukr/Kor2
2. Якість: - допиши 1080p
3. Допиши назви звукових доріжок: Аудіо # 1: Аудіо # 2:
4. виправи силки на скріншоти. На http://img.hurtom.com коли завантажив картинки, вибери: Коди для вставки: BB-код оригіналу з посиланням - і встав цей код сюди...
http://take.ms/fYlue
5. А також в майбутньому постарайся писати назву торрент відповідно до правил Гуртом: https://toloka.to/t3644
для простоти можеш взяти подібну роздачі та вписати свої дані...
Додано через 5 хвилин 2 секунди:

Myishko написано:
-Нормальний об'єм фільму 1,5-2 GB .

Це HD, якщо Вам потрібен менший обєм - завантажуте звідси https://toloka.to/t82216

IronBee 
Свій


З нами з: 08.02.10
Востаннє: 19.08.17
Повідомлень: 62

2017-06-12 11:20  
MasterYura
Все виправив,в майбутньому постараюсь без помилок)

igor911 
Відео Гуртом
Відео Гуртом


З нами з: 18.01.08
Востаннє: 20.08.17
Повідомлень: 7291

2017-06-13 14:01  
Скріншоти в розділі HD мають бути у форматі png, замініть будь ласка.
IronBee 
Свій


З нами з: 08.02.10
Востаннє: 19.08.17
Повідомлень: 62

2017-06-13 16:11  
igor911
замінив

Ваш часовий пояс: GMT + 2 Години

Нова тема   Відповісти