Основи йоги (Сезон 2 Випуск 1-5) (2016-2017) 1080р

Нові коментарі

Нова тема   Відповісти
Автор Повідомлення
stepan stepanov 
Частий відвідувач


З нами з: 17.12.10
Востаннє: 20.08.17
Повідомлень: 32

2017-06-11 17:20  

Основи йоги (Сезон 2 Випуск 1-5) (2016-2017) 1080р

Основи йоги (Сезон 2 Випуск 1-5) (2016-2017) 1080р


Жанр: навчальний, спорт
Країна: Україна
Студія: Salut Studio

Опис:
Перша повноформатна, україномовна телепередача про йогу. Проект навчального характеру. Програма містить шість рубрик: тіло, дихання, свідомість, філософія йоги, цікавинки із світу йоги та інтерв'ю у відомого йога.


Тривалість: ~00:30:00
Якість: 1080р
Відео:
кодек:
розмір кадру: 1920 х 1080
бітрейт: 2500~9000кб/с

Аудіо:
мова: українська
переклад: оригінал
кодек: 2.0
бітрейт: 125~192 кб/с
Скріншоти
Звіт Info

General
Complete name : Основи йоги 02_01.mp4
Format : MPEG-4
Format profile : Base Media / Version 2
Codec ID : mp42
File size : 1.86 GiB
Duration : 29mn 3s
Overall bit rate mode : Variable
Overall bit rate : 9 140 Kbps
Encoded date : UTC 2015-12-25 13:14:47
Tagged date : UTC 2015-12-25 13:18:42
©TIM : 00:00:00:00
©TSC : 25
©TSZ : 1

Video
ID : 1
Format : AVC
Format/Info : Advanced Video Codec
Format profile : [email protected]
Format settings, CABAC : Yes
Format settings, ReFrames : 3 frames
Codec ID : avc1
Codec ID/Info : Advanced Video Coding
Duration : 29mn 3s
Bit rate mode : Variable
Bit rate : 8 977 Kbps
Maximum bit rate : 12.0 Mbps
Width : 1 920 pixels
Height : 1 080 pixels
Display aspect ratio : 16:9
Frame rate mode : Constant
Frame rate : 25.000 fps
Standard : PAL
Color space : YUV
Chroma subsampling : 4:2:0
Bit depth : 8 bits
Scan type : Progressive
Bits/(Pixel*Frame) : 0.173
Stream size : 1.82 GiB (98%)
Language : English
Encoded date : UTC 2015-12-25 13:14:47
Tagged date : UTC 2015-12-25 13:14:47
Color range : Limited

Audio
ID : 2
Format :
Format/Info : Advanced Audio Codec
Format profile : LC
Codec ID : 40
Duration : 29mn 3s
Source duration : 29mn 3s
Bit rate mode : Variable
Bit rate : 157 Kbps
Maximum bit rate : 255 Kbps
Channel(s) : 2 channels
Channel positions : Front: L R
Sampling rate : 48.0 KHz
Compression mode : Lossy
Stream size : 32.7 MiB (2%)
Source stream size : 32.7 MiB (2%)
Language : English
Encoded date : UTC 2015-12-25 13:14:47
Tagged date : UTC 2015-12-25 13:14:47
Випуск перший:

1. (свідомість) психосоматичні техніки зняття напруги перед практикою;
2. (тіло) бічні прогини та положення ашварохи;
3. (дихання) квадрат пранаями "самаврітті пранаям";
4. (йога подорожі) Подорож в Індію, прогулянки по Говардхану;
5. (інтерв'ю в гуру) ГУРУ Шайлендра Шарма;
6. (філософія та теорія йоги) Введення в поняття типування людей.
Випуск другий:

1. (тіло) положення трикутників тріконасана і утхіта тріконасана;
2. (дихання) продовження розгляду квадрат пранаями "самаврітті пранаям";
3. (йога подорожі) Подорож в Індію, світова столиця йоги - місто Рішікеш;
4. (інтерв'ю у відомого майстра) Володимир Вукста - ГОЛТІС;
5. (практикум у відомого майстра) Приктикум в ГОЛТІСА - "Вісьмірка у вершника".
6. (філософія та теорія йоги) Продовження розгляду теми "Типування людей".
Випуск третій:

1. (тіло) положення ПАРШВАТТАНАСАНА;
2. (дихання) ВІЛОМА ПРАНАЯМ;
3. (йога подорожі) Подорож в Індію, світова столиця йоги - місто Рішікеш, відвідини ашраму легендарних "БІТЛЗ";
4. (інтерв'ю у відомого майстра) Найгнучкіша людина планети - МУХТАР ГУСЕНГАНДЖІЄВ;
5. (філософія та теорія йоги) Продовження розгляду теми "Типування людей" - рекомендації для кісткового типу ВАТТА.
Випуск четвертий:

1. (тіло) положення випадів та ВІРАБХАДРАСАНА;
2. (дихання) ВІЛОМА ПРАНАЯМ, розширені версії;
3. (йога подорожі) Подорож в Індію: "Індія країна контрастів, до чого потрібно бути готовим" ;
4. (інтерв'ю у відомого майстра) Автор та засновник Ішвара йоги - АНАТОЛІЙ ЗЕНЧЕНКО;
5. (практикум у відомого майстра) АНАТОЛІЙ ЗЕНЧЕНКО. Демонстрація роботи із діафрагмою.
6. (філософія та теорія йоги) Продовження розгляду теми "Типування людей" - рекомендації для мязевого типу ПІТТА.
Випуск п'ятий:

1. (тіло) положення бічних випадів та РУДРАСАНА;
2. (інтерв'ю у відомого майстра) Найвідоміший йог Молдови - ЛЕОНІД ГАРЦЕНШТЕЙН;
3. (практикум у відомого майстра) ЛЕОНІД ГАРЦЕНШТЕЙН. Вправи для витягу задньої поверхні ніг, ахілові ділянки..
4. (йога подорожі) Подорож в ЄВРОПУ, знайомство з європейською йогою;
5. (філософія та теорія йоги) Продовження розгляду теми "Типування людей" - рекомендації для жирового типу "КАПХА".
Джерело:
Особиста оцінка: 0 - ще не дивився

Залишайтесь будь ласка на роздачі. Дайте змогу іншим користувачам завантажити.


Золотий реліз (завантажене не впливає на рейтинг)
 Трекер:    Зареєстрований   

Завантажити / скачати передачу українською



відео для новачків



 Зареєстрований:   2017-06-12 13:43
 Розмір:   7.12 GB 
 Оцінка передачі:   10/10 (Голосів: 5)
   
bot 
робот


З нами з: 30.09.07
Востаннє: 26.05.05
Повідомлень: 17405

2017-06-11 17:20  
Тему перенесено з Телевізійні шоу та програми до форуму Анонси релізів


stepan stepanov

bot 
робот


З нами з: 30.09.07
Востаннє: 26.05.05
Повідомлень: 17405

2017-06-12 13:43  
Тему перенесено з Анонси релізів до форуму Телевізійні шоу та програми


stepan stepanov

Сонцеслав 
VIP


З нами з: 26.01.11
Востаннє: 19.08.17
Повідомлень: 413

2017-06-12 17:29  
Чи буде перший сезон?
stepan stepanov 
Частий відвідувач


З нами з: 17.12.10
Востаннє: 20.08.17
Повідомлень: 32

2017-06-12 17:33  
Перший сезон на самому верху. Або за посиланням.
igor911 
Відео Гуртом
Відео Гуртом


З нами з: 18.01.08
Востаннє: 21.08.17
Повідомлень: 7309

2017-06-13 14:56  
stepan stepanov, додай звіт медіаінфо для однієї з серій.

Додано через 3 хвилини 9 секунд:

також, для відео, завантаженого з ютубу чи сайту авторів, слід вказувати якість або

Додано через 1 хвилину 40 секунд:

- то для відео з платних сервісів типу айтюнса чи амазона з перевіреною стабільною якістю відеоряду.

stepan stepanov 
Частий відвідувач


З нами з: 17.12.10
Востаннє: 20.08.17
Повідомлень: 32

2017-06-13 15:14  
igor911
Гаразд. Зрозуміло.

SOS6666 
Новенький


З нами з: 10.12.10
Востаннє: 20.08.17
Повідомлень: 16

2017-06-22 14:40  
Цікаво. Підкажіть, як міг статися такий глюк - реліз Золотий, але завантажене мені враховує?
Ваш часовий пояс: GMT + 2 Години

Нова тема   Відповісти