Неоновий демон / The Neon Demon (2016) AVC Ukr/Eng | Sub Eng

Нові коментарі

Нова тема   Відповісти
Автор Повідомлення
Anonymous 







2017-06-11 08:52  
Неоновий демон / The Neon Demon (2016) AVC Ukr/Eng | Sub Eng

Неоновий демон / The Neon Demon (2016) AVC Ukr/Eng | Sub Eng

Жанр: фешн-хоррор, трилер, драма, ЛГБТ
Країна: Францiя, США, Данiя

Каннський кінофестиваль, премія Soundtrack Award - Найкращий композитор (Кліф Мартінез / Cliff Martinez)



Кінокомпанія: Space Rocket Nation, Vendian Entertainment, Bold Films
Режисер: Ніколас Віндінг Рефн / Nicolas Winding Refn
Актори: Ель Фаннінг / Elle Fanning, Кіану Рівз / Keanu Reeves, Карл Глусман / Karl Glusman, Джена Мелоун / Jena Malone, Крістіна Гендрікс / Christina Hendricks, Белла Гіскот / Bella Heathcote, Еббі Лі / Abbey Lee, Десмонт Гаррінгтон / Desmond Harrington, Джемі Клейтон / Jamie Clayton, Чарльз Бейкер / Charles Baker та інші

Сюжет:
Головна героїня фільму – юна Джессі (Ель Фаннінг). Вона усвідомлює свою красу і сміливо користується нею, щоб досягти вершини модельного бізнесу. Відразу після закінчення школи дівчина відправляється в Лос-Анджелес. Майбутня модель не збирається зупинятися ні перед чим на своєму шляху до слави і успіху. Але таких цілеспрямованих як вона тут сотні, якщо не тисячі. І кожна готова порвати конкурентку на частини. Іноді навіть в буквальному розумінні цього слова.
Офіційний український трейлер:

Рейтинг MPAA: R - особам до 17 років обов'язкова присутність батьків або дорослого опікуна
Вікова категорія: 18+

Тривалість: 01:57:42
Якість: AVC
Відео:
кодек:
розмір кадру: 1032 х 432
бітрейт: 1756 кб/с

Аудіо:
мова: українська
переклад: багатоголосий закадровий
кодек: 2.0
бітрейт: 192 кб/с

Аудіо # 2:
мова: англійська
переклад: оригінал
кодек: 5.1
бітрейт: 448 кб/с

Субтитри # 1-2:
мова: англійська (повні, SDH)
тип: програмні (м'які)
формат: *.srt

Збережено оригінальні розділи, як на Blu-ray
Info
Код:
Complete name               : The Neon Demon (2016) [Ukr,Eng sub.Eng] AVC [Hurtom].
Format                      :
Format version              : Version 4 / Version 2
File size                   : 1.97 GiB
Duration                    : 1 h 57 min
Overall bit rate            : 2 398 kb/s
Movie name                  : Неоновий демон / The Neon Demon (2016) [Ukr,Eng sub.Eng] AVC [Hurtom]
Released date               : 2016
Cover                       : Yes
Comment                     : http://www.imdb.com/title/tt1974419/
Attachments                 : cover.jpg
ARTIST                      : Ель Фаннінг / Elle Fanning, Кіану Рівз / Keanu Reeves, Карл Глусман / Karl Glusman, Джена Мелоун / Jena Malone, Крістіна Гендрікс / Christina Hendricks, Белла Гіскот / Bella Heathcote, Еббі Лі / Abbey Lee, Десмонт Гаррінгтон / Desmond Harrington, Джемі Клейтон / Jamie Clayton, Чарльз Бейкер / Charles Baker та інші
DIRECTOR                    : Ніколас Віндінг Рефн / Nicolas Winding Refn
GENRE                       : фешн-хоррор, трилер, драма, лгбт
SYNOPSIS                    : Головна героїня фільму – юна Джессі (Ель Фаннінг). Вона усвідомлює свою красу і сміливо користується нею, щоб досягти вершини модельного бізнесу. Відразу після закінчення школи дівчина відправляється в Лос-Анджелес. Майбутня модель не збирається зупинятися ні перед чим на своєму шляху до слави і успіху. Але таких цілеспрямованих як вона тут сотні, якщо не тисячі. І кожна готова порвати конкурентку на частини. Іноді навіть в буквальному розумінні цього слова.
Url                         : https://toloka.to/t82369

Video
ID                          : 1
Format                      : AVC
Format/Info                 : Advanced Video Codec
Format profile              : [email protected]
Format settings, CABAC      : Yes
Format settings, ReFrames   : 11 frames
Codec ID                    : V_MPEG4/ISO/AVC
Duration                    : 1 h 57 min
Bit rate                    : 1 756 kb/s
Width                       : 1 032 pixels
Height                      : 432 pixels
Display aspect ratio        : 2.40:1
Frame rate mode             : Constant
Frame rate                  : 23.976 FPS
Color space                 : YUV
Chroma subsampling          : 4:2:0
Bit depth                   : 8 bits
Scan type                   : Progressive
Bits/(Pixel*Frame)          : 0.164
Stream size                 : 1.44 GiB (73%)
Title                       : Неоновий демон / The Neon Demon (2016) AVC [HELLYWOOD-potroks]
Writing library             : core 146 r2538 121396c
Encoding settings           : cabac=1 / ref=11 / deblock=1:-2:-2 / analyse=0x3:0x113 / me=umh / subme=11 / psy=1 / psy_rd=1.05:0.10 / mixed_ref=1 / me_range=48 / chroma_me=1 / trellis=2 / 8x8dct=1 / cqm=0 / deadzone=21,11 / fast_pskip=0 / chroma_qp_offset=-3 / threads=9 / lookahead_threads=2 / sliced_threads=0 / nr=0 / decimate=0 / interlaced=0 / bluray_compat=0 / constrained_intra=0 / bframes=12 / b_pyramid=2 / b_adapt=2 / b_bias=0 / direct=3 / weightb=1 / open_gop=0 / weightp=2 / keyint=240 / keyint_min=23 / scenecut=40 / intra_refresh=0 / rc_lookahead=60 / rc=2pass / mbtree=0 / bitrate=1756 / ratetol=1.0 / qcomp=0.70 / qpmin=0 / qpmax=69 / qpstep=4 / cplxblur=20.0 / qblur=0.5 / vbv_maxrate=14000 / vbv_bufsize=14000 / nal_hrd=none / filler=0 / ip_ratio=1.40 / pb_ratio=1.30 / aq=1:0.80
Language                    : English
Default                     : Yes
Forced                      : No

Audio #1
ID                          : 2
Format                      : AC-3
Format/Info                 : Audio Coding 3
Format settings, Endianness : Big
Codec ID                    : A_AC3
Duration                    : 1 h 57 min
Bit rate mode               : Constant
Bit rate                    : 192 kb/s
Channel(s)                  : 2 channels
Channel positions           : Front: L R
Sampling rate               : 48.0 kHz
Frame rate                  : 31.250 FPS (1536 spf)
Bit depth                   : 16 bits
Compression mode            : Lossy
Stream size                 : 162 MiB (8%)
Title                       : MVO, 2.0 192 Kbps [Hurtom]
Language                    : Ukrainian
Service kind                : Complete Main
Default                     : Yes
Forced                      : Yes

Audio #2
ID                          : 3
Format                      : AC-3
Format/Info                 : Audio Coding 3
Format settings, Endianness : Big
Codec ID                    : A_AC3
Duration                    : 1 h 57 min
Bit rate mode               : Constant
Bit rate                    : 448 kb/s
Channel(s)                  : 6 channels
Channel positions           : Front: L C R, Side: L R, LFE
Sampling rate               : 48.0 kHz
Frame rate                  : 31.250 FPS (1536 spf)
Bit depth                   : 16 bits
Compression mode            : Lossy
Stream size                 : 377 MiB (19%)
Title                       : Original, 5.1 448 kbps
Language                    : English
Service kind                : Complete Main
Default                     : No
Forced                      : No

Text #1
ID                          : 4
Format                      : UTF-8
Codec ID                    : S_TEXT/UTF8
Codec ID/Info               : UTF-8 Plain Text
Duration                    : 1 h 44 min
Bit rate                    : 19 b/s
Count of elements           : 618
Stream size                 : 15.2 KiB (0%)
Title                       : Eng Full
Language                    : English
Default                     : No
Forced                      : No

Text #2
ID                          : 5
Format                      : UTF-8
Codec ID                    : S_TEXT/UTF8
Codec ID/Info               : UTF-8 Plain Text
Duration                    : 1 h 45 min
Bit rate                    : 22 b/s
Count of elements           : 728
Stream size                 : 17.5 KiB (0%)
Title                       : Eng SDH
Language                    : English
Default                     : No
Forced                      : No

Menu
00:00:00.000                : en:(01)00:00:00:000
00:07:27.822                : en:(02)00:07:27:822
00:15:43.900                : en:(03)00:15:43:900
00:21:05.931                : en:(04)00:21:05:931
00:26:36.635                : en:(05)00:26:36:635
00:30:33.914                : en:(06)00:30:33:914
00:36:39.655                : en:(07)00:36:39:655
00:43:15.842                : en:(08)00:43:15:842
00:50:39.327                : en:(09)00:50:39:327
00:56:44.108                : en:(10)00:56:44:108
01:04:59.603                : en:(11)01:04:59:603
01:09:24.618                : en:(12)01:09:24:618
01:17:38.862                : en:(13)01:17:38:862
01:23:37.679                : en:(14)01:23:37:679
01:31:53.798                : en:(15)01:31:53:798
01:41:10.314                : en:(16)01:41:10:314
01:47:28.733                : en:(17)01:47:28:733
01:51:56.458                : en:(18)01:51:56:458
01:57:41.804                : en:(19)01:57:41:804



Підтримати купівлю інших фільмів можна тут.



Джерело:
За синхронізацію звуку подяка п.Hanway


 Трекер:    Зареєстрований   

Завантажити / скачати фільм українською



відео для новачків



 Зареєстрований:   2017-06-11 10:31
 Розмір:   1.97 GB 
 Оцінка фільму:   4.8/10 (Голосів: 44)
   
Інші релізи
   Неоновий демон / The Neon Demon (2016) AngryBirdsUA  19 / 0   1.46 GB   2017-06-10 09:51 
waldi-hurtom 
VIP


З нами з: 07.10.12
Востаннє: 15.11.17
Повідомлень: 691

2017-06-12 16:02  
Сміття! Єдине, що вдалось авторам, шокувати власним ідіотизмом. Якщо в Каннах це найкращий композитор, мені шкода жюрі. Ну а решта - взагалі відстій. Режисера треба примусово відправити до психіатра. 1 з 10. І те лише тому, що нуль поставити не можна.
axEAne 
Новенький


З нами з: 20.11.08
Востаннє: 19.11.17
Повідомлень: 16

2017-06-12 20:35  
фільм на любителя. мені МАЙЖЕ зайшов саме із-за саундтреків, які, зрештою, також на любителя
ukr_Rylezz 
Новенький


З нами з: 19.09.11
Востаннє: 18.11.17
Повідомлень: 3

2017-06-12 23:02  
Українські субтитри до фільму від Богдан Закордонець можна завантажити тут: 
Breez 
Новенький


З нами з: 09.03.15
Востаннє: 19.11.17
Повідомлень: 2

2017-06-12 23:38  
Гівно!
Нудний, затягнутий і дуже передбачуваний.

Nikko033 
VIP


З нами з: 31.12.12
Востаннє: 19.11.17
Повідомлень: 360

2017-06-14 03:07  
Breez написано:
Нудний, затягнутий і дуже передбачуваний

фільм який завгодно лиш не передбачуваний Wide grin

AnnaBogdan 
Частий відвідувач


З нами з: 16.10.16
Востаннє: 19.11.17
Повідомлень: 29

2017-06-17 10:58  
Можливо у фільмі і закладено якийсь глибокий сенс, проте я для себе його не знайшлаSad (1) Такий треш, просто в шоці! Ель Фаннінг - мила, а от Кіану Рівз останнім часом розчаровує тими фільмами, у яких знімаєтьсяSad (1)
SaratRich 
Поважний учасник


З нами з: 29.05.12
Востаннє: 19.11.17
Повідомлень: 221

2017-06-17 19:05  
Фільм не дивився, не планую. Але, здається, такі фільми це просто гарний фантик без глибокого змісту, який руйнує первинні цінності людини і моральні установки та заборони, видаючи вседозволеність, і аморальність як норму. Щей кажуть нам "гланьте як усе яскраво і гламурно, жіба ж це не приваблює?!"
Jackolf 
Новенький


З нами з: 05.10.16
Востаннє: 19.11.17
Повідомлень: 4

2017-06-18 21:23  
Шкода витраченого часу.
leicheman 
Відео Гуртом - підтримка та поширення
Відео Гуртом - підтримка та поширення


З нами з: 03.07.14
Востаннє: 20.11.17
Повідомлень: 1363

2017-06-21 14:39  
некрофілія, канібалізм, антиреклама модельного бізнесу. оце усе, що собою являє фільм. не раджу нікому його дивитися.
єдиний + це кінцевий саундтрек Sia -Waving Goodbye

NOWW 
Новенький


З нами з: 23.03.15
Востаннє: 19.11.17
Повідомлень: 21

2017-07-24 14:32  
Багато чув про цей фільм, скачав місяць тому, але подивився вчора ввечері, був легко шокований, думав не додивлюсь до кінця...додивився))) Вранці встав в ще раз подумав про фільм, і Неоновий демон - не так і погане, зі глибокис сенсом про сьогодення. Далі подивився пару оглядів і все зтало на свої місця. Фільм на любителя, який справді цінує і шукає сенс в фільмах.
Smitt011 
Свій


З нами з: 11.02.14
Востаннє: 15.11.17
Повідомлень: 97

2017-08-28 19:32  
Фільм важкий для сприйняття і декілька раз хотів вимикати, але всеж, щось тримає, мабуть дійсно - непередбачуваність сюжету))).
Єдине, що сподобалось, так це саундтрек: - Sia - Waving Goodbye.
1/10.

Ваш часовий пояс: GMT + 2 Години

Нова тема   Відповісти