Лікар Плюшева / Doc McStuffins (Сезон 3, 21 серія з 29) (2015) 1080p Ukr/Eng | sub Eng

Нові коментарі

Нова тема   Відповісти
Автор Повідомлення
sergiyko.5 
Забанено
Забанено


З нами з: 25.02.16
Востаннє: 29.10.20
Повідомлень: 3648

2017-06-10 20:19  
Лікар Плюшева / Doc McStuffins (Сезон 3) (2015) 1080p Ukr/Eng | sub Eng

Лікар Плюшева / Doc McStuffins (Сезон 3, 21 серія з 29) (2015) 1080p Ukr/Eng | sub Eng

Жанр: мультсеріал, пригоди, музичний
Країна: США, Ірландія
Кінокомпанія: Disney
Режисер: Нортон Вірген, Марія Естрада
Актори: Кіара Мухаммад, Джейден Беттс, Лара Джилл Міллер, Роббі Ріст, Лоретта Дивайн, Джесс Харнелл, Кімберлі Брукс, Кайлі Андерсон, Гарі Ентоні Уільямс, Кейтлін Кармайкл

Українською ролі озвучували:
Дана - Єлизавета Мастаєва
Хмарка - Анна Коваль
Вогник - Андрій Альохін
Краля - Олена Узлюк
Дрижик - Сергій Солопай
Данко - Віктор Григор'єв

Режисер дубляжу: Павло Скороходько
Перекладач: Тетяна Левченко
Переклад пісень: Роман Кисельов
Музичний керівник: Тетяна Піроженко


Сюжет:
Хорошим лікарем може бути навіть дитина. Головне – бажання допомогти близьким. У цьому впевнена 6-річна героїня мультсеріалу Дотті, що називає себе Лікар Плюшева, яка просто обожнює свої іграшки. Варто їй тільки піднести до них стетоскоп, і вони оживають!




Тривалість: 1 серія: 24:00 (цілком серій: 21)

Якість:
Відео: кодек: розмір кадру: 1920 х 1080 бітрейт: 5330 кб/с
Аудіо #1: мова: українська переклад: професійний дубльований кодек: 2.0 бітрейт: 192 кб/с
Аудіо #2: мова: англійська переклад: оригінал кодек: 5.1 бітрейт: 384 кб/с
Джерело озвучення:
Субтитри: мова: англійська тип: програмні (м’які) формат: *.srt
Перелік серій:

01.A Dragon's Best Friend
02.Stuffy and Squibbles - Queen of Thrones
03.A Big Pain in Teddy's Tummy - Slip n' Slide
04.Hallie Halloween - Don't Fence Me In
05.Take Your Pet to the Vet - Master and Commander
06.Top Lamb - Molly Molly Mouthful
07.Itty Bitty Bess Takes Flight - Boxed In
08.Doc's Dream Team - Filling Chilly
09.Huggable Hallie - Pop Up Paulo
10.Nurse's Office - A Case of the Glitters
11.Doc McStuffins Goes to Washington - Winded Winnie
12.Lambie Gets the Linties - Moo Moo's Tutu Boo Boo
13.Snowy Gablooey - Goooooal
14.Dmitri the Dazzling - Smitten With a Kitten
15.The Search for Squibbles - Factory Fabulous
16.The New Nurse - Chilly's Loose Button
17.Say It Again Sadie - Mind Over Matter
18.St.Patrick's Day Dilemma - A Giant Save
19.The Scrapiest Dragon - Going for Broke
20.Space Buddies Forever - Liv Long and Pawsper
21.Blast Off to the Unknown - Bust a Move
Інформація про файл:
General
Unique ID : 146498659290086180153463737503213527725 (0x6E369D8FB32AC8F28D7946B69555A2AD)
Complete name : E:\MULTFILMS\Doc McStuffins 1080p\Doc McStuffins S03 1080p\S03E01.A Dragon's Best Friend..1080p.
Format :
Format version : Version 4
File size : 996 MiB
Duration : 24 min 5 s
Overall bit rate : 5 779 kb/s
Movie name : Doc McStuffins S03 by sergiyko
Encoded date : UTC 2018-10-30 10:10:07
Writing application : v28.1.0 ('Morning Child') 64-bit
Writing library : libebml v1.3.6 + v1.4.9

Video
ID : 1
Format : AVC
Format/Info : Advanced Video Codec
Format profile : [email protected]
Format settings : CABAC / 4 Ref Frames
Format settings, CABAC : Yes
Format settings, ReFrames : 4 frames
Codec ID : V_MPEG4/ISO/AVC
Duration : 24 min 5 s
Bit rate : 5 201 kb/s
Width : 1 920 pixels
Height : 1 080 pixels
Display aspect ratio : 16:9
Frame rate mode : Constant
Frame rate : 23.976 (24000/1001) FPS
Color space : YUV
Chroma subsampling : 4:2:0
Bit depth : 8 bits
Scan type : Progressive
Bits/(Pixel*Frame) : 0.105
Stream size : 896 MiB (90%)
Title : S03E01.A Dragon's Best Friend
Language : English
Default : Yes
Forced : No
Color range : Limited
Color primaries : BT.709
Transfer characteristics : BT.709
Matrix coefficients : BT.709

Audio #1
ID : 2
Format : AC-3
Format/Info : Audio Coding 3
Commercial name : Dolby Digital
Codec ID : A_AC3
Duration : 24 min 5 s
Bit rate mode : Constant
Bit rate : 192 kb/s
Channel(s) : 2 channels
Channel layout : L R
Sampling rate : 48.0 kHz
Frame rate : 31.250 FPS (1536 SPF)
Bit depth : 16 bits
Compression mode : Lossy
Stream size : 33.1 MiB (3%)
Title : DUB 2ch | ПлюсПлюс
Language : Ukrainian
Service kind : Complete Main
Default : Yes
Forced : Yes

Audio #2
ID : 3
Format : AC-3
Format/Info : Audio Coding 3
Commercial name : Dolby Digital
Codec ID : A_AC3
Duration : 24 min 5 s
Bit rate mode : Constant
Bit rate : 384 kb/s
Channel(s) : 6 channels
Channel layout : L R C LFE Ls Rs
Sampling rate : 48.0 kHz
Frame rate : 31.250 FPS (1536 SPF)
Bit depth : 16 bits
Compression mode : Lossy
Stream size : 66.2 MiB (7%)
Title : Original DD5.1
Language : English
Service kind : Complete Main
Default : No
Forced : No

Text
ID : 4
Format : UTF-8
Codec ID : S_TEXT/UTF8
Codec ID/Info : UTF-8 Plain Text
Duration : 23 min 31 s
Bit rate : 80 b/s
Count of elements : 530
Stream size : 13.9 KiB (0%)
Title : CC
Language : English
Default : No
Forced : No
Скріншоти:


Запис/зведення: sergiyko



Бронзовий реліз (на рейтинг впливає 75% завантаженого)
 Трекер:    Зареєстрований   

Завантажити / скачати мультфільм українською



відео для новачків



 Зареєстрований:   2018-10-30 13:41
 Розмір:   19.63 GB 
 Оцінка мультсеріалу:   10/10 (Голосів: 8)
   
11FrYkT 
Модератор відео


З нами з: 20.02.11
Востаннє: 16.04.21
Повідомлень: 7147

2017-06-11 12:55  
sergiyko.5 , опишіть субтитри
sergiyko.5 
Забанено
Забанено


З нами з: 25.02.16
Востаннє: 29.10.20
Повідомлень: 3648

2017-11-21 23:57  
Додав 7-12 серії.
sergiyko.5 
Забанено
Забанено


З нами з: 25.02.16
Востаннє: 29.10.20
Повідомлень: 3648

2018-10-30 13:42  
Додав нові серії, перелік старих змінено згідно wiki:
https://toloka.to/t84891#1039971

jartur 
Новенький


З нами з: 10.11.13
Востаннє: 16.04.21
Повідомлень: 24

2019-12-13 13:33  
Панове, станьте на роздачу, будь ласка!
Ваш часовий пояс: GMT + 2 Години

Нова тема   Відповісти