Той, що читає думки (Сезон 5) / The Listener (Season 5) (2014) 720p Ukr/Eng

Нові коментарі

Нова тема   Відповісти
Автор Повідомлення
Anonymous 







2017-06-10 13:44  
Той, що читає думки (Сезон 5) / The Listener (Season 5) (2014) 720p Ukr/Eng

Той, що читає думки (Сезон 5) / The Listener (Season 5) (2014) 720p Ukr/Eng

Жанр: фентезі, драма, кримінальний
Країна: Канада



Кінокомпанія: Shaftesbury Films, CTV Television Network, Bell Broadcast and New Media
Режисер: Майкл Амо, Сем Іґан
Актори: Крейґ Ентоні Олейнік, Енніс Есмер, Лорен Лі Сміт, Рейнбов Френкс та інші

Сюжет:
Тобі Логану 28 років, він парамедик і вміє читати думки інших людей. Він ніколи не знав свого батька й виріс у прийомних сім'ях. До цього моменту він нікому не говорив про свій дар, за винятком доктора Рея Мерсера. Коли Тобі патрулює Торонто зі своїм напарником Озом, він починає користуватися своїм даром, допомагати людям у важких ситуаціях і розкривати злочини. За допомогою детектива Чарлі Маркс і своєї подруги-лікаря Олівії Фосетт, з якою він то сходиться, то розходиться, Тобі розуміє, що його призначення допомагати іншим.


Тривалість: 1 серія: ~43 хв. (цілком серій: 13)
Перелік серій
01. The Wrong Man
02. The Lockup
03. Dancing with the Enemy
04. Smoke and Mirrors
05. Game Over
06. Man in the Mirror
07. Amuse Bouche
08. White Whale
09. The Fugitive
10. Family Secrets
11. Zero Recall
12. An Innocent Man
13. In Our Midst
Якість:
Відео:
кодек:
розмір кадру: 1280 х 720
бітрейт: ~4100 кб/с

Аудіо # 1:
мова: українська
переклад: багатоголосий закадровий
кодек: 2.0
бітрейт: 192 кб/с

Аудіо # 2:
мова: англійська
переклад: оригінал
кодек: 2.0
бітрейт: 156 кб/с

Джерело озвучення:
Info
General
Unique ID : 188115408100630588752345495603144781232 (0x8D85B5B1ECAE650DA53D8FCB8C276DB0)
Complete name : E:\_inbox\torrents\Support\The Listener (Season 5) [, 720p, Ukr, Eng]\The.Listener.S05E01..720p.Ukr.Eng.
Format :
Format version : Version 4 / Version 2
File size : 1.34 GiB
Duration : 43 min 12 s
Overall bit rate : 4 430 kb/s
Encoded date : UTC 2017-06-06 20:42:55
Writing application : v11.0.0 ('Alive') 64bit
Writing library : libebml v1.3.4 + v1.4.5

Video
ID : 1
Format : AVC
Format/Info : Advanced Video Codec
Format profile : [email protected]
Format settings, CABAC : No
Format settings, ReFrames : 2 frames
Codec ID : V_MPEG4/ISO/AVC
Duration : 43 min 12 s
Bit rate : 4 081 kb/s
Width : 1 280 pixels
Height : 720 pixels
Display aspect ratio : 16:9
Frame rate mode : Constant
Frame rate : 23.976 (23976/1000) FPS
Color space : YUV
Chroma subsampling : 4:2:0
Bit depth : 8 bits
Scan type : Progressive
Bits/(Pixel*Frame) : 0.185
Stream size : 1.23 GiB (92%)
Language : English
Default : Yes
Forced : No
Color range : Limited
Color primaries : BT.709
Transfer characteristics : BT.709
Matrix coefficients : BT.709

Audio #1
ID : 2
Format : AC-3
Format/Info : Audio Coding 3
Format settings, Endianness : Big
Codec ID : A_AC3
Duration : 43 min 12 s
Bit rate mode : Constant
Bit rate : 192 kb/s
Channel(s) : 2 channels
Channel positions : Front: L R
Sampling rate : 48.0 kHz
Frame rate : 31.250 FPS (1536 spf)
Bit depth : 16 bits
Compression mode : Lossy
Stream size : 59.3 MiB (4%)
Title : НТН
Language : Ukrainian
Service kind : Complete Main
Default : Yes
Forced : No

Audio #2
ID : 3
Format :
Format/Info : Advanced Audio Codec
Format profile : LC
Codec ID : A_AAC
Duration : 43 min 12 s
Bit rate : 155 kb/s
Channel(s) : 2 channels
Channel positions : Front: L R
Sampling rate : 48.0 kHz
Frame rate : 46.875 FPS (1024 spf)
Compression mode : Lossy
Stream size : 47.9 MiB (3%)
Language : English
Default : No
Forced : No
Скріншоти

Синхронізація української доріжки: krigg070

Джерело: &
Особиста оцінка: 0 - не дивився





Бронзовий реліз (на рейтинг впливає 75% завантаженого)
 Трекер:    Зареєстрований   

Завантажити / скачати серіал українською



відео для новачків



 Зареєстрований:   2017-06-10 13:44
 Розмір:   17.44 GB 
 Оцінка серіалу:   5.3/10 (Голосів: 21)
   
Ваш часовий пояс: GMT + 2 Години

Нова тема   Відповісти