Наладчик [фортепіано] / L'Accordeur (2010) 720p [upscale]

Нові коментарі

Нова тема   Відповісти
Автор Повідомлення
skulptorrr 
Свій


З нами з: 08.03.10
Востаннє: 21.10.17
Повідомлень: 95

2017-06-09 18:20  
Наладчик [фортепіано]/ L'Accordeur (2010) 720p



Жанр: драма, психологічний, трилер
Країна: Франція

Режисер: Олів'є Трен'є / Olivier Treiner

Переклад: U Ku Shu
Ролі озвучують: U Ku Shu, Hanna St., Lesia ( FanDubSheep )
Сюжет:
Молодий чоловік, прикидаючись сліпим і заробляючий на життя настройкою фортепіано, втрапляє в життєво-небезпечну ситуацію по непередбачуваним обставинам...


Якість -- найкраща в інтернеті.
Це апскейл, але, навіть, його знайти було доволі складно.

Тривалість: 00:13:40
Якість:
Відео:
кодек: DivX 4
розмір кадру: 1280 х 720
бітрейт: 1023 кб/с

Аудіо # 1:
мова: українська
переклад: багатоголосий закадровий [U Ku Shu, Hanna St., Lesia]
кодек: 2.0
бітрейт: 317 кб/с

Аудіо # 2:
мова: французька
переклад: оригінал
кодек: 2.0
бітрейт: 165 кб/с
Info

General
Unique ID : 246311833142693118340222870839895821837 (0xB94DEEFA8DB0098EA9030675CE588E0D)
Complete name : E:\Entertainment\video\ShortMovies\[2010][Ukr][Fre][FanDubSheep] L'Accordeur - Наладчик.
Format :
Format version : Version 4 / Version 2
File size : 148 MiB
Duration : 13 min 42 s
Overall bit rate : 1 507 kb/s
Encoded date : UTC 2017-08-08 19:36:43
Writing application : mkvmerge v14.0.0 ('Flow') 64bit
Writing library : libebml v1.3.4 + libmatroska v1.4.5

Video
ID : 1
Format : MPEG-4 Visual
Format profile : Advanced [email protected]
Format settings, BVOP : No
Format settings, QPel : No
Format settings, GMC : No warppoints
Format settings, Matrix : Default (H.263)
Codec ID : V_MS/VFW/FOURCC / DIVX
Codec ID/Info : Project Mayo
Codec ID/Hint : DivX 4
Duration : 13 min 41 s
Bit rate : 1 023 kb/s
Width : 1 280 pixels
Height : 720 pixels
Display aspect ratio : 16:9
Frame rate mode : Constant
Frame rate : 25.000 FPS
Color space : YUV
Chroma subsampling : 4:2:0
Bit depth : 8 bits
Scan type : Progressive
Compression mode : Lossy
Bits/(Pixel*Frame) : 0.044
Stream size : 100 MiB (68%)
Writing library : Lavc57.48.101
Language : English
Default : Yes
Forced : No

Audio #1
ID : 2
Format :
Format/Info : Advanced Audio Codec
Format profile : LC
Codec ID : A_AAC
Duration : 13 min 41 s
Bit rate : 317 kb/s
Channel(s) : 2 channels
Channel positions : Front: L R
Sampling rate : 48.0 kHz
Frame rate : 46.875 FPS (1024 spf)
Compression mode : Lossy
Stream size : 31.1 MiB (21%)
Title : FanDubSheep
Language : Ukrainian
Default : Yes
Forced : No

Audio #2
ID : 3
Format :
Format/Info : Advanced Audio Codec
Format profile : LC
Codec ID : A_AAC
Duration : 13 min 42 s
Bit rate : 165 kb/s
Channel(s) : 2 channels
Channel positions : Front: L R
Sampling rate : 48.0 kHz
Frame rate : 46.875 FPS (1024 spf)
Compression mode : Lossy
Delay relative to video : 21 ms
Stream size : 16.2 MiB (11%)
Language : French
Default : No
Forced : No
Скріншоти





Джерело:


Особиста оцінка: 9 - давно не бачив настільки якісне кіно


Авторський реліз (завантажувати можна без реєстрації)
 Трекер:    Зареєстрований   

Завантажити / скачати фільм українською



відео для новачків



 Зареєстрований:   2017-08-08 22:42
 Розмір:   148 MB 
 Оцінка фільму:   10/10 (Голосів: 8)
   
11FrYkT 
Модератор відео


З нами з: 20.02.11
Востаннє: 22.10.17
Повідомлень: 3977

2017-08-07 10:38  
skulptorrr написано:

Compression mode : Lossy
Stream size : 31.1 MiB (24%)
Language : English
Default : Yes


Згідно МІ тут одна доріжка тай та англійська, виправіть

lightinsight 
Свій


З нами з: 07.04.14
Востаннє: 22.10.17
Повідомлень: 66

2017-08-09 12:12  
по непередбачуваних обставинах
skulptorrr 
Свій


З нами з: 08.03.10
Востаннє: 21.10.17
Повідомлень: 95

2017-08-09 13:45  
Дай посилання, котре підтверджує що не можна вживати "непередбачуваним обставинам" в українській Happy
EvGaS 
Відео Гуртом - субтитрування
Відео Гуртом - субтитрування


З нами з: 27.02.12
Востаннє: 22.10.17
Повідомлень: 4101

2017-08-09 14:08  
Поліською говіркою було б за непередбачуваними обставинами.
Ваш часовий пояс: GMT + 2 Години

Нова тема   Відповісти