Упс! Ной відплив... (All Creatures Big and Small) / Ooops! Noah is Gone... (2015) 1080p Ukr/Eng | Sub Eng

Нові коментарі

Нова тема   Відповісти
Автор Повідомлення
Anonymous 







2017-06-04 18:29  
Упс! Ной відплив... (All Creatures Big and Small) / Ooops! Noah is Gone... (2015) 1080p Ukr/Eng | Sub Eng

Упс! Ной відплив... (All Creatures Big and Small) / Ooops! Noah is Gone... (2015) 1080p Ukr/Eng | Sub Eng

Жанр: анімація, пригодницький, комедія
Країна: Німеччина, Бельгія, Люксембург, Ірландія, США



Кінокомпанія: Ulysses Filmproduktion, Fabrique d'Images, Skyline Entertainment, Moetion Films, Scope Pictures, Studio Rakete
Режисер: Тобі Ґенкель / Toby Genkel, Шон МакКормак / Sean McCormack
Актори: Дермот Маґенніс / Dermot Magennis, Каллум Малоні / Callum Maloney, Тара Флінн / Tara Flynn, Пол Тайлак / Paul Tylak, Алан Стенфорд / Alan Stanford, Ейлін Мітен / Aileen Mythen, Патрік Фіцсімонс / Patrick FitzSymons, Карла Бекер / Carla Becker, Франциска Фрід / Franciska Friede та інші

Сюжет:
Наближається всесвітній потоп, і Ной ось-ось відчалить. Саме час для звірів зайняти свої каюти. Але, на жаль, пощастило не всім - дехто фейс-контроль не пройшов. Тепер їм доведеться як слід постаратися, щоб перехитрити долю і заскочити на підніжку ковчега, що відпливає.

Рейтинг MPAA: G - нема вікових обмежень
Вікова категорія: 6+
Тривалість: 01:26:28
Якість: 1080p [Hurtom]
Відео:
кодек:
розмір кадру: 1920 х 1036
бітрейт: 6164 Кб/с [crf=16.5]

Аудіо # 1:
мова: українська
переклад: багатоголосий закадровий
кодек: 2.0
бітрейт: 192 кб/с

Аудіо # 2:
мова: англійська
переклад: оригінал
кодек: 5.1
бітрейт: 640 кб/с

Субтитри:
мова: англійська
тип: програмні (м'які)
формат: *.srt

Збережено оригінальні розділи, як на Blu-ray
Info та log
Код:
Complete name               : Ooops! Noah is Gone... (2015) [Ukr,Eng sub.Eng] 1080p [Hurtom].
Format                      :
Format version              : Version 4 / Version 2
File size                   : 4.23 GiB
Duration                    : 1 h 26 min
Overall bit rate            : 6 999 kb/s
Movie name                  : Упс! Ной відплив... / All Creatures Big and Small / Ooops! Noah is Gone... (2015) [Ukr,Eng sub.Eng] 1080p [Hurtom]
Released date               : 2015
Cover                       : Yes
Comment                     : http://www.imdb.com/title/tt3411432/
Attachments                 : cover.jpg
ARTIST                      : Дермот Маґенніс / Dermot Magennis, Каллум Малоні / Callum Maloney, Тара Флінн / Tara Flynn, Пол Тайлак / Paul Tylak, Алан Стенфорд / Alan Stanford, Ейлін Мітен / Aileen Mythen, Патрік Фіцсімонс / Patrick FitzSymons, Карла Бекер / Carla Becker, Франциска Фрід / Franciska Friede та інші
DIRECTOR                    : Тобі Ґенкель / Toby Genkel, Шон МакКормак / Sean McCormack
GENRE                       : анімація, пригодницький, комедія
SYNOPSIS                    : Наближається всесвітній потоп, і Ной ось-ось відчалить. Саме час для звірів зайняти свої каюти. Але, на жаль, пощастило не всім - дехто фейс-контроль не пройшов. Тепер їм доведеться як слід постаратися, щоб перехитрити долю і заскочити на підніжку ковчега, що відпливає...
Url                         : https://toloka.to/t82278

Video
ID                          : 1
Format                      : AVC
Format/Info                 : Advanced Video Codec
Format profile              : [email protected]
Format settings, CABAC      : Yes
Format settings, ReFrames   : 4 frames
Codec ID                    : V_MPEG4/ISO/AVC
Duration                    : 1 h 26 min
Bit rate                    : 6 164 kb/s
Width                       : 1 920 pixels
Height                      : 1 036 pixels
Display aspect ratio        : 1.85:1
Frame rate mode             : Constant
Frame rate                  : 24.000 FPS
Color space                 : YUV
Chroma subsampling          : 4:2:0
Bit depth                   : 8 bits
Scan type                   : Progressive
Bits/(Pixel*Frame)          : 0.129
Stream size                 : 3.72 GiB (88%)
Title                       : Упс! Ной відплив... / All Creatures Big and Small / Ooops! Noah is Gone... (2015) 1080p [Hurtom-igor911]
Writing library             : core 148 r2744 b97ae06
Encoding settings           : cabac=1 / ref=4 / deblock=1:1:1 / analyse=0x3:0x133 / me=umh / subme=11 / psy=1 / psy_rd=0.40:0.00 / mixed_ref=1 / me_range=32 / chroma_me=1 / trellis=2 / 8x8dct=1 / cqm=0 / deadzone=21,11 / fast_pskip=0 / chroma_qp_offset=-2 / threads=12 / lookahead_threads=3 / sliced_threads=0 / nr=0 / decimate=1 / interlaced=0 / bluray_compat=0 / constrained_intra=0 / bframes=12 / b_pyramid=2 / b_adapt=2 / b_bias=0 / direct=3 / weightb=1 / open_gop=0 / weightp=2 / keyint=240 / keyint_min=24 / scenecut=40 / intra_refresh=0 / rc_lookahead=60 / rc=crf / mbtree=1 / crf=16.5 / qcomp=0.60 / qpmin=0 / qpmax=69 / qpstep=4 / vbv_maxrate=62500 / vbv_bufsize=78125 / crf_max=0.0 / nal_hrd=none / filler=0 / ip_ratio=1.40 / aq=1:0.60
Language                    : English
Default                     : Yes
Forced                      : No

Audio #1
ID                          : 2
Format                      : AC-3
Format/Info                 : Audio Coding 3
Format settings, Endianness : Big
Codec ID                    : A_AC3
Duration                    : 1 h 26 min
Bit rate mode               : Constant
Bit rate                    : 192 kb/s
Channel(s)                  : 2 channels
Channel positions           : Front: L R
Sampling rate               : 48.0 kHz
Frame rate                  : 31.250 FPS (1536 spf)
Bit depth                   : 16 bits
Compression mode            : Lossy
Stream size                 : 119 MiB (3%)
Title                       : MVO [Volya Cine+ Kids] 2.0 192 Kbps [Hurtom - Gelios, Sando7]
Language                    : Ukrainian
Service kind                : Complete Main
Default                     : Yes
Forced                      : Yes

Audio #2
ID                          : 3
Format                      : AC-3
Format/Info                 : Audio Coding 3
Format settings, Endianness : Big
Codec ID                    : A_AC3
Duration                    : 1 h 26 min
Bit rate mode               : Constant
Bit rate                    : 640 kb/s
Channel(s)                  : 6 channels
Channel positions           : Front: L C R, Side: L R, LFE
Sampling rate               : 48.0 kHz
Frame rate                  : 31.250 FPS (1536 spf)
Bit depth                   : 16 bits
Compression mode            : Lossy
Stream size                 : 396 MiB (9%)
Title                       : Original, 5.1 640 Kbps
Language                    : English
Service kind                : Complete Main
Default                     : No
Forced                      : No

Text
ID                          : 4
Format                      : UTF-8
Codec ID                    : S_TEXT/UTF8
Codec ID/Info               : UTF-8 Plain Text
Duration                    : 1 h 19 min
Bit rate                    : 47 b/s
Count of elements           : 1073
Stream size                 : 28.1 KiB (0%)
Title                       : Eng full
Language                    : English
Default                     : No
Forced                      : No

Menu
00:00:00.000                : en:00:00:00.000
00:11:23.667                : en:00:11:23.667
00:23:23.375                : en:00:23:23.375
00:33:47.750                : en:00:33:47.750
00:44:26.333                : en:00:44:26.333
00:54:39.667                : en:00:54:39.667
01:06:37.333                : en:01:06:37.333
01:17:07.958                : en:01:17:07.958

Код:
raw [info]: 1920x1036p 1:1 @ 24/1 fps (cfr)
[info]: using SAR=1/1
[info]: using cpu capabilities: MMX2 SSE2Fast SSSE3 SSE4.2 AVX
[info]: profile High, level 4.1
[info]: frame I:1114  Avg QP:13.88  size:275770
[info]: frame P:33157 Avg QP:17.71  size: 63536
[info]: frame B:90244 Avg QP:21.72  size: 17550
[info]: consecutive B-frames:  4.3%  4.3% 27.1% 14.5% 13.7% 28.9%  4.2%  0.7%  0.7%  0.4%  0.5%  0.3%  0.5%
[info]: mb I  I16..4:  5.5% 83.6% 10.9%
[info]: mb P  I16..4:  3.4% 17.4%  0.7%  P16..4: 29.4% 23.2%  7.1%  0.8%  0.1%    skip:18.0%
[info]: mb B  I16..4:  0.6%  3.2%  0.1%  B16..8: 25.2%  9.7%  1.3%  direct: 3.3%  skip:56.8%  L0:40.6% L1:48.6% BI:10.8%
[info]: 8x8 transform intra:81.6% inter:72.1%
[info]: direct mvs  spatial:99.9% temporal:0.1%
[info]: coded y,uvDC,uvAC intra: 71.4% 69.1% 39.0% inter: 14.7% 13.3% 3.5%
[info]: i16 v,h,dc,p:  9% 13%  9% 69%
[info]: i8 v,h,dc,ddl,ddr,vr,hd,vl,hu: 11% 12%  9%  8% 11% 11% 13% 11% 15%
[info]: i4 v,h,dc,ddl,ddr,vr,hd,vl,hu: 15% 14% 14%  6% 14% 11% 12%  7%  9%
[info]: i8c dc,h,v,p: 28% 34% 19% 20%
[info]: Weighted P-Frames: Y:1.5% UV:1.1%
[info]: ref P L0: 60.1%  8.9% 23.1%  7.4%  0.5%  0.0%
[info]: ref B L0: 86.5% 11.2%  2.3%
[info]: ref B L1: 95.4%  4.6%
[info]: kb/s:6164.33
encoded 124515 frames, 5.66 fps, 6164.33 kb/s
перепрошую, скріншоти будуть згодом


Джерело:
Подяка за український постер та звук Gelios'у та Sando7

ЗАЛИШАЙТЕСЬ ЯКОМОГА ДОВШЕ НА РОЗДАЧІ
ЗАВАНТАЖИВ САМ - ДАЙ ЗАВАНТАЖИТИ ІНШИМ!


 Трекер:    Зареєстрований   

Завантажити / скачати мультфільм українською



відео для новачків



 Зареєстрований:   2017-06-04 18:46
 Розмір:   4.23 GB 
 Оцінка мультфільму:   2.4/10 (Голосів: 13)
   
mukhaboyka 
Новенький


З нами з: 30.11.15
Востаннє: 18.08.17
Повідомлень: 12

2017-06-05 17:32  
А скріни десь поділись, чи я просто їх не бачу?)
Anonymous 







2017-06-05 18:43  
скріншоти будуть згодом
mukhaboyka 
Новенький


З нами з: 30.11.15
Востаннє: 18.08.17
Повідомлень: 12

2017-06-14 20:46  
Наскільки згодом?
trofum911 
Поважний учасник


З нами з: 31.01.12
Востаннє: 12.08.17
Повідомлень: 152

2017-06-16 22:32  
Буде кращий звук?
demetrius52 
Частий відвідувач


З нами з: 02.04.17
Востаннє: 05.08.17
Повідомлень: 49

2017-07-22 01:53  
Anonymous
ви, напевно, забули, та у вас тут немає скріншотів

Ваш часовий пояс: GMT + 2 Години

Нова тема   Відповісти