Упс! Ной відплив... (All Creatures Big and Small) / Ooops! Noah is Gone... (2015) 720p Ukr/Eng | Sub Eng

Нові коментарі

Нова тема   Відповісти
Автор Повідомлення
Anonymous 







2017-06-04 17:20  
Упс! Ной відплив... / Ooops! Noah is Gone... (2015) 720p Ukr/Eng | Sub Eng

Упс! Ной відплив... (All Creatures Big and Small) / Ooops! Noah is Gone... (2015) 720p Ukr/Eng | Sub Eng

Жанр: анімація, пригодницький, комедія
Країна: Німеччина, Бельгія, Люксембург, Ірландія, США



Кінокомпанія: Ulysses Filmproduktion, Fabrique d'Images, Skyline Entertainment, Moetion Films, Scope Pictures, Studio Rakete
Режисер: Тобі Ґенкель / Toby Genkel, Шон МакКормак / Sean McCormack
Актори: Дермот Маґенніс / Dermot Magennis, Каллум Малоні / Callum Maloney, Тара Флінн / Tara Flynn, Пол Тайлак / Paul Tylak, Алан Стенфорд / Alan Stanford, Ейлін Мітен / Aileen Mythen, Патрік Фіцсімонс / Patrick FitzSymons, Карла Бекер / Carla Becker, Франциска Фрід / Franciska Friede та інші

Сюжет:
Наближається всесвітній потоп, і Ной ось-ось відчалить. Саме час для звірів зайняти свої каюти. Але, на жаль, пощастило не всім - дехто фейс-контроль не пройшов. Тепер їм доведеться як слід постаратися, щоб перехитрити долю і заскочити на підніжку ковчега, що відпливає.

Рейтинг MPAA: G - нема вікових обмежень
Вікова категорія: 6+
Тривалість: 01:26:28
Якість: 720p [Hurtom]
Відео:
кодек:
розмір кадру: 1280 х 692
бітрейт: 2904 Кб/с [crf=16.7]

Аудіо # 1:
мова: українська
переклад: багатоголосий закадровий
кодек: 2.0
бітрейт: 192 кб/с

Аудіо # 2:
мова: англійська
переклад: оригінал
кодек: 5.1
бітрейт: 640 кб/с

Субтитри:
мова: англійська
тип: програмні (м'які)
формат: *.srt

Збережено оригінальні розділи, як на Blu-ray
Info та log
Код:
Complete name               : Ooops! Noah is Gone... (2015) [Ukr,Eng sub.Eng,Ita] 720p [Hurtom].
Format                      :
Format version              : Version 4 / Version 2
File size                   : 2.26 GiB
Duration                    : 1 h 26 min
Overall bit rate            : 3 738 kb/s
Movie name                  : Упс! Ной відплив... / All Creatures Big and Small / Ooops! Noah is Gone... (2015) [Ukr,Eng sub.Eng,Ita] 720p [Hurtom]
Released date               : 2015
Cover                       : Yes
Comment                     : http://www.imdb.com/title/tt3411432/
Attachments                 : cover.jpg
ARTIST                      : Дермот Маґенніс / Dermot Magennis, Каллум Малоні / Callum Maloney, Тара Флінн / Tara Flynn, Пол Тайлак / Paul Tylak, Алан Стенфорд / Alan Stanford, Ейлін Мітен / Aileen Mythen, Патрік Фіцсімонс / Patrick FitzSymons, Карла Бекер / Carla Becker, Франциска Фрід / Franciska Friede та інші
DIRECTOR                    : Тобі Ґенкель / Toby Genkel, Шон МакКормак / Sean McCormack
GENRE                       : анімація, пригодницький, комедія
SYNOPSIS                    : Наближається всесвітній потоп, і Ной ось-ось відчалить. Саме час для звірів зайняти свої каюти. Але, на жаль, пощастило не всім - дехто фейс-контроль не пройшов. Тепер їм доведеться як слід постаратися, щоб перехитрити долю і заскочити на підніжку ковчега, що відпливає...
Url                         : https://toloka.to/t82276

Video
ID                          : 1
Format                      : AVC
Format/Info                 : Advanced Video Codec
Format profile              : [email protected]
Format settings, CABAC      : Yes
Format settings, ReFrames   : 9 frames
Codec ID                    : V_MPEG4/ISO/AVC
Duration                    : 1 h 26 min
Bit rate                    : 2 904 kb/s
Width                       : 1 280 pixels
Height                      : 692 pixels
Display aspect ratio        : 1.85:1
Frame rate mode             : Constant
Frame rate                  : 24.000 FPS
Color space                 : YUV
Chroma subsampling          : 4:2:0
Bit depth                   : 8 bits
Scan type                   : Progressive
Bits/(Pixel*Frame)          : 0.137
Stream size                 : 1.75 GiB (78%)
Title                       : Упс! Ной відплив... / All Creatures Big and Small / Ooops! Noah is Gone... (2015) 720p [Hurtom-igor911]
Writing library             : core 148 r2744 b97ae06
Encoding settings           : cabac=1 / ref=9 / deblock=1:1:1 / analyse=0x3:0x133 / me=umh / subme=11 / psy=1 / psy_rd=0.40:0.00 / mixed_ref=1 / me_range=32 / chroma_me=1 / trellis=2 / 8x8dct=1 / cqm=0 / deadzone=21,11 / fast_pskip=0 / chroma_qp_offset=-2 / threads=12 / lookahead_threads=3 / sliced_threads=0 / nr=0 / decimate=1 / interlaced=0 / bluray_compat=0 / constrained_intra=0 / bframes=10 / b_pyramid=2 / b_adapt=2 / b_bias=0 / direct=3 / weightb=1 / open_gop=0 / weightp=2 / keyint=240 / keyint_min=24 / scenecut=40 / intra_refresh=0 / rc_lookahead=60 / rc=crf / mbtree=1 / crf=16.7 / qcomp=0.60 / qpmin=0 / qpmax=69 / qpstep=4 / vbv_maxrate=62500 / vbv_bufsize=78125 / crf_max=0.0 / nal_hrd=none / filler=0 / ip_ratio=1.40 / aq=1:0.60
Language                    : English
Default                     : Yes
Forced                      : No

Audio #1
ID                          : 2
Format                      : AC-3
Format/Info                 : Audio Coding 3
Format settings, Endianness : Big
Codec ID                    : A_AC3
Duration                    : 1 h 26 min
Bit rate mode               : Constant
Bit rate                    : 192 kb/s
Channel(s)                  : 2 channels
Channel positions           : Front: L R
Sampling rate               : 48.0 kHz
Frame rate                  : 31.250 FPS (1536 spf)
Bit depth                   : 16 bits
Compression mode            : Lossy
Stream size                 : 119 MiB (5%)
Title                       : MVO [Volya Cine+ Kids] 2.0 192 Kbps [Hurtom - Gelios, Sando7]
Language                    : Ukrainian
Service kind                : Complete Main
Default                     : Yes
Forced                      : Yes

Audio #2
ID                          : 3
Format                      : AC-3
Format/Info                 : Audio Coding 3
Format settings, Endianness : Big
Codec ID                    : A_AC3
Duration                    : 1 h 26 min
Bit rate mode               : Constant
Bit rate                    : 640 kb/s
Channel(s)                  : 6 channels
Channel positions           : Front: L C R, Side: L R, LFE
Sampling rate               : 48.0 kHz
Frame rate                  : 31.250 FPS (1536 spf)
Bit depth                   : 16 bits
Compression mode            : Lossy
Stream size                 : 396 MiB (17%)
Title                       : Original, 5.1 640 Kbps
Language                    : English
Service kind                : Complete Main
Default                     : No
Forced                      : No

Text
ID                          : 4
Format                      : UTF-8
Codec ID                    : S_TEXT/UTF8
Codec ID/Info               : UTF-8 Plain Text
Duration                    : 1 h 19 min
Bit rate                    : 47 b/s
Count of elements           : 1073
Stream size                 : 28.1 KiB (0%)
Title                       : Eng full
Language                    : English
Default                     : No
Forced                      : No

Menu
00:00:00.000                : en:00:00:00.000
00:11:23.667                : en:00:11:23.667
00:23:23.375                : en:00:23:23.375
00:33:47.750                : en:00:33:47.750
00:44:26.333                : en:00:44:26.333
00:54:39.667                : en:00:54:39.667
01:06:37.333                : en:01:06:37.333
01:17:07.958                : en:01:17:07.958

Код:
raw [info]: 1280x692p 1:1 @ 24/1 fps (cfr)
[info]: using SAR=1/1
[info]: using cpu capabilities: MMX2 SSE2Fast SSSE3 SSE4.2 AVX
[info]: profile High, level 4.1
[info]: frame I:1198  Avg QP:13.78  size:155926
[info]: frame P:29509 Avg QP:18.09  size: 32712
[info]: frame B:93808 Avg QP:22.19  size:  7792
[info]: consecutive B-frames:  3.0%  2.9% 17.7% 18.5% 15.2% 32.0%  4.6%  2.5%  1.4%  0.9%  1.4%
[info]: mb I  I16..4:  6.2% 69.9% 23.9%
[info]: mb P  I16..4:  2.6% 14.4%  1.6%  P16..4: 28.8% 23.0%  8.9%  1.5%  0.2%    skip:19.1%
[info]: mb B  I16..4:  0.4%  2.3%  0.2%  B16..8: 23.8%  9.1%  1.5%  direct: 2.4%  skip:60.3%  L0:41.8% L1:45.4% BI:12.8%
[info]: 8x8 transform intra:76.9% inter:64.7%
[info]: direct mvs  spatial:99.9% temporal:0.1%
[info]: coded y,uvDC,uvAC intra: 72.5% 71.2% 42.4% inter: 12.9% 10.8% 3.8%
[info]: i16 v,h,dc,p:  8% 12%  6% 74%
[info]: i8 v,h,dc,ddl,ddr,vr,hd,vl,hu: 12% 12%  7%  8% 12% 11% 13% 11% 15%
[info]: i4 v,h,dc,ddl,ddr,vr,hd,vl,hu: 25% 12%  8%  6% 12% 10% 11%  7%  9%
[info]: i8c dc,h,v,p: 29% 33% 18% 21%
[info]: Weighted P-Frames: Y:2.0% UV:1.5%
[info]: ref P L0: 52.6% 10.0% 16.5%  5.6%  4.8%  3.4%  3.7%  1.6%  1.8%  0.1%  0.0%
[info]: ref B L0: 78.6%  9.4%  5.2%  2.2%  1.7%  1.6%  1.0%  0.3%
[info]: ref B L1: 95.2%  4.8%
[info]: kb/s:2903.66
encoded 124515 frames, 10.06 fps, 2903.66 kb/s
перепрошую, скріншоти будуть згодом


Джерело:
Подяка за український постер та звук Gelios'у та Sando7

ЗАЛИШАЙТЕСЬ ЯКОМОГА ДОВШЕ НА РОЗДАЧІ
ЗАВАНТАЖИВ САМ - ДАЙ ЗАВАНТАЖИТИ ІНШИМ!


 Трекер:    Зареєстрований   

Завантажити / скачати мультфільм українською



відео для новачків



 Зареєстрований:   2017-06-04 17:46
 Розмір:   2.26 GB 
 Оцінка мультфільму:   5.1/10 (Голосів: 20)
   
11FrYkT 
Модератор відео


З нами з: 20.02.11
Востаннє: 20.08.17
Повідомлень: 3807

2017-06-05 08:02  
Anonymous , додайте скріншорти, так само і в сусідніх роздачах
Ваш часовий пояс: GMT + 2 Години

Нова тема   Відповісти