Упс! Ной відплив... (All Creatures Big and Small) / Ooops! Noah is Gone... (2015) Remux 1080p Ukr/Eng | Sub Eng/Ita

Нові коментарі

Нова тема   Відповісти
Автор Повідомлення
Anonymous 







2017-06-04 12:28  
Упс! Ной відплив... (All Creatures Big and Small) / Ooops! Noah is Gone... (2015) Remux 1080p Ukr/Eng | Sub Eng/Ita

Упс! Ной відплив... (All Creatures Big and Small) / Ooops! Noah is Gone... (2015) Remux 1080p Ukr/Eng | Sub Eng/Ita

Жанр: анімація, пригодницький, комедія
Країна: Німеччина, Бельгія, Люксембург, Ірландія, США



Кінокомпанія: Ulysses Filmproduktion, Fabrique d'Images, Skyline Entertainment, Moetion Films, Scope Pictures, Studio Rakete
Режисер: Тобі Ґенкель / Toby Genkel, Шон МакКормак / Sean McCormack
Актори: Дермот Маґенніс / Dermot Magennis, Каллум Малоні / Callum Maloney, Тара Флінн / Tara Flynn, Пол Тайлак / Paul Tylak, Алан Стенфорд / Alan Stanford, Ейлін Мітен / Aileen Mythen, Патрік Фіцсімонс / Patrick FitzSymons, Карла Бекер / Carla Becker, Франциска Фрід / Franciska Friede та інші

Сюжет:
Наближається всесвітній потоп, і Ной ось-ось відчалить. Саме час для звірів зайняти свої каюти. Але, на жаль, пощастило не всім - дехто фейс-контроль не пройшов. Тепер їм доведеться як слід постаратися, щоб перехитрити долю і заскочити на підніжку ковчега, що відпливає.

Рейтинг MPAA: G - нема вікових обмежень
Вікова категорія: 6+
Тривалість: 01:26:28
Якість: Remux
Відео:
кодек:
розмір кадру: 1920 х 1080
бітрейт: 22 Мб/с

Аудіо # 1:
мова: українська
переклад: багатоголосий закадровий
кодек: 2.0
бітрейт: 192 кб/с

Аудіо # 2:
мова: англійська
переклад: оригінал
кодек: -HD MA 5.1
бітрейт: 3967 кб/с

Субтитри # 1:
мова: англійська
тип: програмні (м'які)
формат: *.srt

Субтитри #2:
мова: італійська
тип: пререндерні
формат: pgs

Збережено оригінальні розділи, як на Blu-ray
Info
Код:
Complete name               : Ooops! Noah is Gone... (2015) [Ukr,Eng sub.Eng,Ita] Remux 1080p [Hurtom].
Format                      :
Format version              : Version 4 / Version 2
File size                   : 15.8 GiB
Duration                    : 1 h 26 min
Overall bit rate mode       : Variable
Overall bit rate            : 26.1 Mb/s
Movie name                  : Упс! Ной відплив... / All Creatures Big and Small / Ooops! Noah is Gone... (2015) [Ukr,Eng sub.Eng,Ita] Remux 1080p [Hurtom]
Released date               : 2015
Cover                       : Yes
Comment                     : http://www.imdb.com/title/tt3411432/
Attachments                 : cover.jpg
ARTIST                      : Дермот Маґенніс / Dermot Magennis, Каллум Малоні / Callum Maloney, Тара Флінн / Tara Flynn, Пол Тайлак / Paul Tylak, Алан Стенфорд / Alan Stanford, Ейлін Мітен / Aileen Mythen, Патрік Фіцсімонс / Patrick FitzSymons, Карла Бекер / Carla Becker, Франциска Фрід / Franciska Friede та інші
DIRECTOR                    : Тобі Ґенкель / Toby Genkel, Шон МакКормак / Sean McCormack
GENRE                       : анімація, пригодницький, комедія
SYNOPSIS                    : Наближається всесвітній потоп, і Ной ось-ось відчалить. Саме час для звірів зайняти свої каюти. Але, на жаль, пощастило не всім - дехто фейс-контроль не пройшов. Тепер їм доведеться як слід постаратися, щоб перехитрити долю і заскочити на підніжку ковчега, що відпливає...
Url                         : https://toloka.to/t82273

Video
ID                          : 1
Format                      : AVC
Format/Info                 : Advanced Video Codec
Format profile              : [email protected]
Format settings, CABAC      : Yes
Format settings, ReFrames   : 4 frames
Codec ID                    : V_MPEG4/ISO/AVC
Duration                    : 1 h 26 min
Bit rate mode               : Variable
Bit rate                    : 22.0 Mb/s
Maximum bit rate            : 36.0 Mb/s
Width                       : 1 920 pixels
Height                      : 1 080 pixels
Display aspect ratio        : 16:9
Frame rate mode             : Constant
Frame rate                  : 24.000 FPS
Color space                 : YUV
Chroma subsampling          : 4:2:0
Bit depth                   : 8 bits
Scan type                   : Progressive
Bits/(Pixel*Frame)          : 0.441
Stream size                 : 13.3 GiB (84%)
Title                       : Упс! Ной відплив... / All Creatures Big and Small / Ooops! Noah is Gone... (2015) [Ukr,Eng sub.Eng,Ita] Remux 1080p [BlueBird]
Language                    : English
Default                     : Yes
Forced                      : No
Color range                 : Limited
Color primaries             : BT.709
Transfer characteristics    : BT.709
Matrix coefficients         : BT.709

Audio #1
ID                          : 2
Format                      : AC-3
Format/Info                 : Audio Coding 3
Format settings, Endianness : Big
Codec ID                    : A_AC3
Duration                    : 1 h 26 min
Bit rate mode               : Constant
Bit rate                    : 192 kb/s
Channel(s)                  : 2 channels
Channel positions           : Front: L R
Sampling rate               : 48.0 kHz
Frame rate                  : 31.250 FPS (1536 spf)
Bit depth                   : 16 bits
Compression mode            : Lossy
Stream size                 : 119 MiB (1%)
Title                       : MVO [Volya Cine+ Kids] 2.0 192 Kbps [Hurtom - Gelios, Sando7]
Language                    : Ukrainian
Service kind                : Complete Main
Default                     : Yes
Forced                      : Yes

Audio #2
ID                          : 3
Format                      :
Format/Info                 : Digital Theater Systems
Format profile              : MA / Core
Mode                        : 16
Format settings, Endianness : Big
Codec ID                    : A_DTS
Duration                    : 1 h 26 min
Bit rate mode               : Variable / Constant
Bit rate                    : 3 967 kb/s / 768 kb/s
Channel(s)                  : 6 channels
Channel positions           : Front: L C R, Side: L R, LFE
Sampling rate               : 48.0 kHz
Frame rate                  : 93.750 FPS (512 spf)
Bit depth                   : 24 bits
Compression mode            : Lossless / Lossy
Stream size                 : 2.40 GiB (15%)
Title                       : Original, -HD MA 5.1 3967 (768) Kbps
Language                    : English
Default                     : No
Forced                      : No

Text #1
ID                          : 4
Format                      : UTF-8
Codec ID                    : S_TEXT/UTF8
Codec ID/Info               : UTF-8 Plain Text
Duration                    : 1 h 19 min
Bit rate                    : 47 b/s
Count of elements           : 1073
Stream size                 : 28.1 KiB (0%)
Title                       : Eng full [UTF-8]
Language                    : English
Default                     : No
Forced                      : No

Text #2
ID                          : 5
Format                      : PGS
Muxing mode                 : zlib
Codec ID                    : S_HDMV/PGS
Codec ID/Info               : Picture based subtitle format used on BDs/HD-DVDs
Duration                    : 1 h 20 min
Bit rate                    : 11.3 kb/s
Count of elements           : 1976
Stream size                 : 6.45 MiB (0%)
Title                       : Ita full [PGS]
Language                    : Italian
Default                     : No
Forced                      : No

Menu
00:00:00.000                : en:Chapter 1
00:11:23.666                : en:Chapter 2
00:23:23.375                : en:Chapter 3
00:33:47.750                : en:Chapter 4
00:44:26.333                : en:Chapter 5
00:54:39.666                : en:Chapter 6
01:06:37.333                : en:Chapter 7
01:17:07.958                : en:Chapter 8
перепрошую, скріншоти будуть згодом


Джерело: &
Подяка за український постер та звук Gelios'у та Sando7

ЗАЛИШАЙТЕСЬ ЯКОМОГА ДОВШЕ НА РОЗДАЧІ
ЗАВАНТАЖИВ САМ - ДАЙ ЗАВАНТАЖИТИ ІНШИМ!


Золотий реліз (завантажене не впливає на рейтинг)
 Трекер:    Зареєстрований   

Завантажити / скачати мультфільм українською



відео для новачків



 Зареєстрований:   2017-06-04 16:00
 Розмір:   15.79 GB 
 Оцінка мультфільму:   3.8/10 (Голосів: 16)
   
Ваш часовий пояс: GMT + 2 Години

Нова тема   Відповісти