Упс! Ной відплив... (All Creatures Big and Small) / Ooops! Noah is Gone... (2015) AVC Ukr/Eng | Sub Eng

Нові коментарі

Нова тема   Відповісти
Автор Повідомлення
Anonymous 







2017-06-04 11:51  
Упс! Ной відплив... / All Creatures Big and Small / Ooops! Noah is Gone... (2015) AVC Ukr/Eng | Sub Eng

Упс! Ной відплив... (All Creatures Big and Small) / Ooops! Noah is Gone... (2015) AVC Ukr/Eng | Sub Eng

Жанр: анімація, пригодницький, комедія
Країна: Німеччина, Бельгія, Люксембург, Ірландія, США



Кінокомпанія: Ulysses Filmproduktion, Fabrique d'Images, Skyline Entertainment, Moetion Films, Scope Pictures, Studio Rakete
Режисер: Тобі Ґенкель / Toby Genkel, Шон МакКормак / Sean McCormack
Актори: Дермот Маґенніс / Dermot Magennis, Каллум Малоні / Callum Maloney, Тара Флінн / Tara Flynn, Пол Тайлак / Paul Tylak, Алан Стенфорд / Alan Stanford, Ейлін Мітен / Aileen Mythen, Патрік Фіцсімонс / Patrick FitzSymons, Карла Бекер / Carla Becker, Франциска Фрід / Franciska Friede та інші

Сюжет:
Наближається всесвітній потоп, і Ной ось-ось відчалить. Саме час для звірів зайняти свої каюти. Але, на жаль, пощастило не всім - дехто фейс-контроль не пройшов. Тепер їм доведеться як слід постаратися, щоб перехитрити долю і заскочити на підніжку ковчега, що відпливає.

Рейтинг MPAA: G - нема вікових обмежень
Вікова категорія: 6+
Тривалість: 01:26:28
Якість: AVC
Відео:
кодек:
розмір кадру: 1024 х 552
бітрейт: 2699 кб/с

Аудіо # 1:
мова: українська
переклад: багатоголосий закадровий
кодек: 2.0
бітрейт: 192 кб/с

Аудіо # 2:
мова: англійська
переклад: оригінал
кодек: 5.1
бітрейт: 448 кб/с

Субтитри:
мова: англійська
тип: програмні (м'які)
формат: *.srt

Збережено оригінальні розділи, як на Blu-ray
Info
Код:
Complete name               : Ooops! Noah is Gone... (2015) [Ukr,Eng sub.Eng] AVC [Hurtom].
Format                      :
Format version              : Version 4 / Version 2
File size                   : 2.02 GiB
Duration                    : 1 h 26 min
Overall bit rate            : 3 339 kb/s
Movie name                  : Упс! Ной відплив... / All Creatures Big and Small / Ooops! Noah is Gone... (2015) [Ukr,Eng sub.Eng] AVC [Hurtom]
Released date               : 2015
Cover                       : Yes
Comment                     : http://www.imdb.com/title/tt3411432/
Attachments                 : cover.jpg
ARTIST                      : Дермот Маґенніс / Dermot Magennis, Каллум Малоні / Callum Maloney, Тара Флінн / Tara Flynn, Пол Тайлак / Paul Tylak, Алан Стенфорд / Alan Stanford, Ейлін Мітен / Aileen Mythen, Патрік Фіцсімонс / Patrick FitzSymons, Карла Бекер / Carla Becker, Франциска Фрід / Franciska Friede та інші
DIRECTOR                    : Тобі Ґенкель / Toby Genkel, Шон МакКормак / Sean McCormack
GENRE                       : анімація, пригодницький, комедія
SYNOPSIS                    : Наближається всесвітній потоп, і Ной ось-ось відчалить. Саме час для звірів зайняти свої каюти. Але, на жаль, пощастило не всім - дехто фейс-контроль не пройшов. Тепер їм доведеться як слід постаратися, щоб перехитрити долю і заскочити на підніжку ковчега, що відпливає...
Url                         : https://toloka.to/t82272

Video
ID                          : 1
Format                      : AVC
Format/Info                 : Advanced Video Codec
Format profile              : [email protected]
Format settings, CABAC      : Yes
Format settings, ReFrames   : 8 frames
Codec ID                    : V_MPEG4/ISO/AVC
Duration                    : 1 h 26 min
Bit rate                    : 2 699 kb/s
Width                       : 1 024 pixels
Height                      : 552 pixels
Display aspect ratio        : 1.85:1
Frame rate mode             : Constant
Frame rate                  : 24.000 FPS
Color space                 : YUV
Chroma subsampling          : 4:2:0
Bit depth                   : 8 bits
Scan type                   : Progressive
Bits/(Pixel*Frame)          : 0.199
Stream size                 : 1.63 GiB (81%)
Title                       : Упс! Ной відплив... / All Creatures Big and Small / Ooops! Noah is Gone... (2015) AVC [ExKinoRay]
Writing library             : core 142 r2431 ac76440
Encoding settings           : cabac=1 / ref=8 / deblock=1:-3:-3 / analyse=0x3:0x133 / me=umh / subme=9 / psy=1 / psy_rd=1.00:0.10 / mixed_ref=1 / me_range=48 / chroma_me=1 / trellis=2 / 8x8dct=1 / cqm=0 / deadzone=21,11 / fast_pskip=0 / chroma_qp_offset=-3 / threads=4 / lookahead_threads=1 / sliced_threads=0 / nr=0 / decimate=1 / interlaced=0 / bluray_compat=0 / constrained_intra=0 / bframes=16 / b_pyramid=2 / b_adapt=1 / b_bias=0 / direct=3 / weightb=1 / open_gop=0 / weightp=2 / keyint=240 / keyint_min=24 / scenecut=40 / intra_refresh=0 / rc_lookahead=40 / rc=2pass / mbtree=1 / bitrate=2699 / ratetol=1.0 / qcomp=0.60 / qpmin=0 / qpmax=69 / qpstep=4 / cplxblur=20.0 / qblur=0.5 / vbv_maxrate=62500 / vbv_bufsize=78125 / nal_hrd=none / filler=0 / ip_ratio=1.40 / aq=1:1.00
Language                    : English
Default                     : Yes
Forced                      : No

Audio #1
ID                          : 2
Format                      : AC-3
Format/Info                 : Audio Coding 3
Format settings, Endianness : Big
Codec ID                    : A_AC3
Duration                    : 1 h 26 min
Bit rate mode               : Constant
Bit rate                    : 192 kb/s
Channel(s)                  : 2 channels
Channel positions           : Front: L R
Sampling rate               : 48.0 kHz
Frame rate                  : 31.250 FPS (1536 spf)
Bit depth                   : 16 bits
Compression mode            : Lossy
Stream size                 : 119 MiB (6%)
Title                       : MVO [Volya Cine+ Kids] 2.0 192 Kbps [Hurtom - Gelios, Sando7]
Language                    : Ukrainian
Service kind                : Complete Main
Default                     : Yes
Forced                      : Yes

Audio #2
ID                          : 3
Format                      : AC-3
Format/Info                 : Audio Coding 3
Format settings, Endianness : Big
Codec ID                    : A_AC3
Duration                    : 1 h 26 min
Bit rate mode               : Constant
Bit rate                    : 448 kb/s
Channel(s)                  : 6 channels
Channel positions           : Front: L C R, Side: L R, LFE
Sampling rate               : 48.0 kHz
Frame rate                  : 31.250 FPS (1536 spf)
Bit depth                   : 16 bits
Compression mode            : Lossy
Stream size                 : 277 MiB (13%)
Title                       : Original, 5.1 448 Kbps
Language                    : English
Service kind                : Complete Main
Default                     : No
Forced                      : No

Text
ID                          : 4
Format                      : UTF-8
Codec ID                    : S_TEXT/UTF8
Codec ID/Info               : UTF-8 Plain Text
Duration                    : 1 h 19 min
Bit rate                    : 47 b/s
Count of elements           : 1073
Stream size                 : 28.1 KiB (0%)
Title                       : Eng full
Language                    : English
Default                     : No
Forced                      : No

Menu
00:00:00.000                : en:
00:11:23.666                : en:
00:23:23.375                : en:
00:33:47.750                : en:
00:44:26.333                : en:
00:54:39.666                : en:
01:06:37.333                : en:
01:17:07.958                : en:


Джерело: &
Подяка за український постер та звук Gelios'у та Sando7

ЗАЛИШАЙТЕСЬ ЯКОМОГА ДОВШЕ НА РОЗДАЧІ
ЗАВАНТАЖИВ САМ - ДАЙ ЗАВАНТАЖИТИ ІНШИМ!


 Трекер:    Зареєстрований   

Завантажити / скачати мультфільм українською



відео для новачків



 Зареєстрований:   2017-06-04 12:10
 Розмір:   2.02 GB 
 Оцінка мультфільму:   6/10 (Голосів: 27)
   
malyafka 
Новенький


З нами з: 17.07.12
Востаннє: 11.07.17
Повідомлень: 5

2017-07-06 10:33  
Дякую за мультфільм,прекрасний, добрий та красивий. Про дружбу і затятість, пошук себе і свого місця. Думала що мульт буде геть дитячим, навіть ніяким, а виявився цікавим і динамічним,накшталт льодовикового періоду. Дякую
Ваш часовий пояс: GMT + 2 Години

Нова тема   Відповісти