Нікчемний Я 2 / Despicable Me 2 (2013) 720p-mini

Нові коментарі

Нова тема   Відповісти
Автор Повідомлення
Drool 
VIP


З нами з: 17.04.10
Востаннє: 22.08.17
Повідомлень: 1376

2017-06-02 10:11  
Нікчемний Я 2 / Despicable Me 2 (2013) 720p-mini

Жанр: анімація, комедія, сімейний, пригоди
Країна: США



Кінокомпанія: Universal Pictures, Illumination Entertainment
Режисер: П'єр Соффін, Кріс Рено
Актори: Стів Карелл, Крістен Уіґ, Бенджамін Бретт, Міранда Косґров, Расселл Бренд, Кен Жонґ, Стів Куган, Елсі Фішер, Дена Ґайер, Мойзес Аріас та ін.

Сюжет:
Суперлиходій завжди лишатиметься суперлиходієм навіть після того, як став татком трьох маленьких дівчаток. Але зараз не до підступних планів. Адже його армія під загрозою. По одному зникають його вірні посіпаки. Крадія, звичайно, можна зрозуміти - кожен мріє, щоб у нього був такий гарнесенький, жовтенький, чудовий помічник. Та Ґру повинен припинити це неподобство!


Тривалість: 01:37:58
Якість: 720p-mini
Відео:
кодек:
розмір кадру: 1280x690
бітрейт: 1820 кб/с

Аудіо:
мова: українська
переклад: професійний дубльований
кодек: 5.1
бітрейт: 448 кб/с
Info
Код:
General
Unique ID                                : 27576084138631901067101765145893702054 (0x14BEF5EB23075DD05D8EE1E3AACE89A6)
Complete name                            : /mnt/disk_d/Video/Despicable.Me.2.2013.Ukr.Dub..720p-mini.
Format                                   :
Format version                           : Version 4 / Version 2
File size                                : 1.58 GiB
Duration                                 : 1h 37mn
Overall bit rate                         : 2 314 Kbps
Movie name                               : Нікчемний Я 2 / Despicable Me 2 (2013) 720p-mini | video by LEONARDO
Encoded date                             : UTC 2017-06-02 06:47:36
Writing application                      : mkvmerge v9.7.1 ('Pandemonium') 64bit
Writing library                          : libebml v1.3.4 + libmatroska v1.4.5
Attachements                             : cover.jpg
DURATION                                 : 01:37:58.688000000
NUMBER_OF_FRAMES                         : 183709
NUMBER_OF_BYTES                          : 329206528
_STATISTICS_WRITING_APP                  : mkvmerge v9.7.1 ('Pandemonium') 64bit
_STATISTICS_WRITING_DATE_UTC             : 2017-06-02 06:47:36
_STATISTICS_TAGS                         : BPS DURATION NUMBER_OF_FRAMES NUMBER_OF_BYTES

Video
ID                                       : 1
Format                                   : AVC
Format/Info                              : Advanced Video Codec
Format profile                           : [email protected]
Format settings, CABAC                   : Yes
Format settings, ReFrames                : 8 frames
Codec ID                                 : V_MPEG4/ISO/AVC
Duration                                 : 1h 37mn
Bit rate                                 : 1 820 Kbps
Width                                    : 1 280 pixels
Height                                   : 690 pixels
Display aspect ratio                     : 1.85:1
Frame rate mode                          : Constant
Frame rate                               : 23.976 fps
Color space                              : YUV
Chroma subsampling                       : 4:2:0
Bit depth                                : 8 bits
Scan type                                : Progressive
Bits/(Pixel*Frame)                       : 0.086
Stream size                              : 1.25 GiB (79%)
Title                                    : Нікчемний Я 2 / Despicable Me 2 (2013) 720p-mini | video by LEONARDO
Writing library                          : core 125 r2208 d9d2288
Encoding settings                        : cabac=1 / ref=8 / deblock=1:-1:-1 / analyse=0x3:0x133 / me=umh / subme=10 / psy=1 / psy_rd=0.40:0.00 / mixed_ref=1 / me_range=24 / chroma_me=1 / trellis=2 / 8x8dct=1 / cqm=0 / deadzone=21,11 / fast_pskip=0 / chroma_qp_offset=-2 / threads=12 / lookahead_threads=2 / sliced_threads=0 / nr=0 / decimate=1 / interlaced=0 / bluray_compat=0 / constrained_intra=0 / bframes=16 / b_pyramid=2 / b_adapt=1 / b_bias=0 / direct=3 / weightb=0 / open_gop=0 / weightp=2 / keyint=250 / keyint_min=23 / scenecut=40 / intra_refresh=0 / rc_lookahead=60 / rc=crf / mbtree=1 / crf=22.0 / qcomp=0.70 / qpmin=0 / qpmax=69 / qpstep=4 / ip_ratio=1.40 / aq=1:0.60
Default                                  : Yes
Forced                                   : Yes

Audio
ID                                       : 2
Format                                   : AC-3
Format/Info                              : Audio Coding 3
Mode extension                           : CM (complete main)
Format settings, Endianness              : Big
Codec ID                                 : A_AC3
Duration                                 : 1h 37mn
Bit rate mode                            : Constant
Bit rate                                 : 448 Kbps
Channel(s)                               : 6 channels
Channel positions                        : Front: L C R, Side: L R, LFE
Sampling rate                            : 48.0 KHz
Compression mode                         : Lossy
Stream size                              : 314 MiB (19%)
Title                                    : Рідна мова | 5.1, 448 кб/с, 48 кГц
Language                                 : Ukrainian
Default                                  : Yes
Forced                                   : Yes
Скріншоти




Джерело відеоряду:
Особиста оцінка: 10 - без зайвих вагань рекомендую всім!


 Трекер:    Зареєстрований   

Завантажити / скачати мультфільм українською



відео для новачків



 Зареєстрований:   2017-06-02 10:11
 Розмір:   1.58 GB 
 Оцінка мультфільму:   10/10 (Голосів: 11)
   
Інші релізи
lumenandrew 
Новенький


З нами з: 27.05.12
Востаннє: 16.08.17
Повідомлень: 1

2017-06-03 13:19  
Чи буде з дубляжем 1080 або ремукс?
Electroz 
Відео Гуртом - підтримка та поширення
Відео Гуртом - підтримка та поширення


З нами з: 18.09.14
Востаннє: 22.08.17
Повідомлень: 1494

2017-06-03 13:28  
lumenandrew
Гляньте під спойлер "Інші релізи".

Ваш часовий пояс: GMT + 2 Години

Нова тема   Відповісти