Академія Юних Відьом: Зачарований Парад / Little Witch Academia: Mahoujikake no Parade/ リトルウィッチアカデミア 魔法仕掛けのパレード(2015) Jap | Sub Ukr

Нові коментарі

Нова тема   Відповісти
Автор Повідомлення
opa79 
Новенький


З нами з: 01.12.11
Востаннє: 19.08.17
Повідомлень: 20

2017-05-30 13:24  
Академія Юних Відьом: Зачарований Парад / Little Witch Academia: Mahoujikake no Parade/ リトルウィッチアカデミア 魔法仕掛けのパレード (2015) Jap | Sub Ukr




Жанр: Пригоди, фентезі, комедія, школа, магія
Країна: Японія



Кінокомпанія: Тригер
Режисер: Йо Йошінарі
Актори (сейю): Мічіо Мурасе, Меґумі Хан, Фуміко Орікаса, Йоко Хікаса

Сюжет:
Ацко Каґарі (Акко) у шість років потрапила на магічне шоу відьми Шайні Черіот, і відтоді мріє стати такою, як ця відьма. Дівчина вступає до Академії Луна Нова, де вчилась Черіот, але вона нічого не знає про магію - і, як наслідок, в неї постійно щось не так. Як покарання за завдані вчителям та учням клопоти та різні витівки завуч дає доручення Акко разом з подругами - Сюсі Мамбаваран і Лотте Янсон - та трьома іншими порушницями порядку організувати традиційний парад для фестивалю у місті, біля якого розташовано школу. Парад цей є реконструкцією полювання на відьом, і відьом на ньому всіляко принижують, а за зрив заходу всю компанію юних відьмочок загрожують вигнати зі школи геть.

Акко вирішує замість реконструкції полювання на відьом зробити у місті веселий парад і змінити ставлення людей до відьом. На заваді цьому плану стають її невмілість та недосвідченість як чарівниці та постійні сварки з друзями через труднощі при організації заходу. На додачу в місті через жадібність мера-забудовника знищують печатку Відьми Дженіфер і просинається схожий на кібердемона з гри Doom велетень...

Тривалість: 00:53:24
Якість:
Відео:
кодек:
розмір кадру: 1280х720
бітрейт: 3500 Кбіт/с

Аудіо:
мова: японська
переклад: оригінал
кодек: 2.0
бітрейт: 192 Кбіт/с

Субтитри:
мова: українська
тип: програмні (м'які)
формат: *.srt
переклад: opa79 (з англійської)
Info

General
Format :
Format version : Version 4 / Version 2
File size : 1.38 GiB
Duration : 53mn 24s
Overall bit rate : 3 695 Kbps
Writing application : Lavf56.36.100
Writing library : Lavf56.36.100

Video
ID : 1
Format : AVC
Format/Info : Advanced Video Codec
Format profile : [email protected]
Format settings, CABAC : Yes
Format settings, ReFrames : 10 frames
Codec ID : V_MPEG4/ISO/AVC
Duration : 53mn 24s
Bit rate : 3 500 Kbps
Width : 1 280 pixels
Height : 720 pixels
Display aspect ratio : 16:9
Frame rate mode : Constant
Frame rate : 23.885 fps
Original frame rate : 23.976 fps
Color space : YUV
Chroma subsampling : 4:2:0
Bit depth : 8 bits
Scan type : Progressive
Bits/(Pixel*Frame) : 0.159
Stream size : 1.28 GiB (93%)
Writing library : core 119 r2106 07efeb4
Encoding settings : cabac=1 / ref=10 / deblock=1:-3:-3 / analyse=0x3:0x133 / me=umh / subme=10 / psy=1 / psy_rd=1.00:0.00 / mixed_ref=1 / me_range=48 / chroma_me=0 / trellis=2 / 8x8dct=1 / cqm=0 / deadzone=21,11 / fast_pskip=0 / chroma_qp_offset=-2 / threads=6 / sliced_threads=0 / nr=0 / decimate=1 / interlaced=0 / bluray_compat=0 / constrained_intra=0 / bframes=3 / b_pyramid=2 / b_adapt=2 / b_bias=0 / direct=3 / weightb=1 / open_gop=0 / weightp=2 / keyint=250 / keyint_min=23 / scenecut=40 / intra_refresh=0 / rc_lookahead=60 / rc=2pass / mbtree=1 / bitrate=3500 / ratetol=1.0 / qcomp=0.60 / qpmin=10 / qpmax=51 / qpstep=4 / cplxblur=20.0 / qblur=0.5 / ip_ratio=1.40 / aq=1:1.00
Default : Yes
Forced : No
_STATISTICS_WRITING_APP : mkvmerge v7.6.0 ('Garden of Dreams') 64bit built on Feb 8 2015 13:04:34
_STATISTICS_WRITING_DATE_UTC : 2016-06-28 14:36:10
_STATISTICS_TAGS : BPS DURATION NUMBER_OF_FRAMES NUMBER_OF_BYTES
DURATION : 00:53:24.160000000
NUMBER_OF_FRAMES : 76823
NUMBER_OF_BYTES : 1401942113

Audio
ID : 2
Format : AC-3
Format/Info : Audio Coding 3
Mode extension : CM (complete main)
Format settings, Endianness : Big
Codec ID : A_AC3
Duration : 53mn 24s
Bit rate mode : Constant
Bit rate : 192 Kbps
Channel(s) : 2 channels
Channel positions : Front: L R
Sampling rate : 48.0 KHz
Bit depth : 32 bits
Compression mode : Lossy
Stream size : 73.3 MiB (5%)
Скріншоти







Особиста оцінка: 10 - без зайвих вагань рекомендую всім!


Авторський реліз (завантажувати можна без реєстрації)
 Трекер:    Зареєстрований   

Завантажити / скачати аніме українською



відео для новачків



 Зареєстрований:   2017-05-30 13:24
 Розмір:   1.38 GB 
 Оцінка аніме:   9/10 (Голосів: 1)
   
Ліхтарник 
VIP


З нами з: 16.09.14
Востаннє: 19.08.17
Повідомлень: 613

2017-05-31 13:14  
Дякую за переклад
opa79 
Новенький


З нами з: 01.12.11
Востаннє: 19.08.17
Повідомлень: 20

2017-05-31 13:30  
Ліхтарнику, будь ласка.
От якби хто ще озвучив це аніме і серіал (всі серії)...

Ваш часовий пояс: GMT + 2 Години

Нова тема   Відповісти