Потяг до Пусану / Train to Busan / Busanhaeng / 부산행 (2016) 720p-mini

Нові коментарі

Нова тема   Відповісти
Автор Повідомлення
krigg070 
Відео Гуртом - фільмокрай
Відео Гуртом - фільмокрай


З нами з: 29.10.14
Востаннє: 23.08.17
Повідомлень: 745

2017-05-30 11:34  
Потяг до Пусану / Train to Busan / Busanhaeng / 부산행 (2016) 720p-mini

Потяг до Пусану / Train to Busan / Busanhaeng / 부산행 (2016) 720p-mini

Жанр: трилер, жахи, екшн
Країна: Південна Корея



Кінокомпанія: Next Entertainment World, RedPeter Film
Режисер: Сан-хо Єн
Актори: Ю Гон, Ю Мі Чон (II), Дон Сік Ма, Су Ан Кім, Ий Сон Кім, У Шик Чхве, З Хі Ан, Хек Чжин Чжан, Ин Ген Сим, Сік Ен Чон, Мен Сін Пак, До Їм У, Юль Хо Кім

Сюжет:
Людство за всю історію свого існування пережило безліч різних епідемій. Дивно, але в XXI столітті, коли наука досягла грандіозних успіхів у галузі медицини, Південну Корею охопила епідемія невідомого вірусу, який перетворює заражених людей в кровожерних тварюк, які змітають все на своєму шляху. Вірус поширюється з нечуваною швидкістю. Тому уряд країни змушений оголосити про воєнний стан. Жителі Сеула, які змогли уникнути зараження, сідають на потяг, який прямує в Пусан, де спалахи епідемії вдалося уникнути. Вони вважають, що це їхній шанс на порятунок. Однак вони помилялися. Адже вірус зміг проникнути не тільки в поїзд, а й в місто їх слідування. Чим же закінчиться ця смертельно небезпечна поїздка?

Тривалість: 01:58:08
Якість: (TayTO)
Відео:
кодек:
розмір кадру: 1280 х 694
бітрейт: 2 872 кб/с

Аудіо (завантажити):
мова: українська
переклад: багатоголосий закадровий
кодек: 2.0
бітрейт: 192 кб/с
Скріншоти
Info
Код:
Video
ID                                       : 1
Format                                   : AVC
Format/Info                              : Advanced Video Codec
Format profile                           : [email protected]
Format settings, CABAC                   : Yes
Format settings, ReFrames                : 9 frames
Codec ID                                 : V_MPEG4/ISO/AVC
Duration                                 : 1h 58mn
Bit rate                                 : 2 872 Kbps
Width                                    : 1 280 pixels
Height                                   : 694 pixels
Display aspect ratio                     : 1.85:1
Frame rate mode                          : Constant
Frame rate                               : 23.976 (24000/1001) fps
Color space                              : YUV
Chroma subsampling                       : 4:2:0
Bit depth                                : 8 bits
Scan type                                : Progressive
Bits/(Pixel*Frame)                       : 0.135
Stream size                              : 2.37 GiB (94%)
Writing library                          : core 148 r2705+54 9f484c1 t_mod_Custom [[email protected] X86_64]
Encoding settings                        : cabac=1 / ref=9 / deblock=1:-3:-3 / analyse=0x3:0x133 / me=umh / subme=10 / psy=1 / fade_compensate=0.00 / psy_rd=1.00:0.00 / mixed_ref=1 / me_range=24 / chroma_me=1 / trellis=2 / 8x8dct=1 / cqm=0 / deadzone=21,11 / fast_pskip=0 / chroma_qp_offset=-2 / threads=12 / lookahead_threads=2 / sliced_threads=0 / nr=0 / decimate=0 / interlaced=0 / bluray_compat=0 / constrained_intra=0 / fgo=0 / bframes=8 / b_pyramid=2 / b_adapt=2 / b_bias=0 / direct=3 / weightb=1 / open_gop=0 / weightp=2 / keyint=250 / keyint_min=23 / scenecut=40 / intra_refresh=0 / rc_lookahead=60 / rc=crf / mbtree=0 / crf=20.5000 / qcomp=0.65 / qpmin=0:0:0 / qpmax=69:69:69 / qpstep=4 / vbv_maxrate=62500 / vbv_bufsize=78125 / crf_max=0.0 / nal_hrd=none / filler=0 / ip_ratio=1.30 / pb_ratio=1.20 / aq=3:0.80 / aq-sensitivity=10.00 / aq-factor=1.00:1.00:1.00 / aq2=0 / aq3=0 / zones=0,535,b=3/163505,169943,b=0.3
Language                                 : Korean
Default                                  : Yes
Forced                                   : No
Color range                              : Limited
Matrix coefficients                      : BT.709

Audio
ID                                       : 2
Format                                   : AC-3
Format/Info                              : Audio Coding 3
Mode extension                           : CM (complete main)
Format settings, Endianness              : Big
Codec ID                                 : A_AC3
Duration                                 : 1h 58mn
Bit rate mode                            : Constant
Bit rate                                 : 192 Kbps
Channel(s)                               : 2 channels
Channel positions                        : Front: L R
Sampling rate                            : 48.0 KHz
Frame rate                               : 31.250 fps (1536 spf)
Compression mode                         : Lossy
Stream size                              : 162 MiB (6%)
Title                                    : 2.0 @ 192 kbps - Ukraina
Language                                 : Ukrainian
Default                                  : Yes
Forced                                   : No

Menu
00:00:00.000                             : en:00:00:00.000
00:11:02.537                             : en:00:11:02.537
00:19:35.216                             : en:00:19:35.216
00:29:38.443                             : en:00:29:38.443
00:39:13.518                             : en:00:39:13.518
00:51:01.850                             : en:00:51:01.850
00:59:30.025                             : en:00:59:30.025
01:08:15.091                             : en:01:08:15.091
01:20:56.060                             : en:01:20:56.060
01:29:58.268                             : en:01:29:58.268
01:38:03.544                             : en:01:38:03.544
01:49:07.583                             : en:01:49:07.583
Джерело:


 Трекер:    Зареєстрований   

Завантажити / скачати фільм українською



відео для новачків



 Зареєстрований:   2017-05-30 11:34
 Розмір:   2.53 GB 
 Оцінка фільму:   9/10 (Голосів: 14)
   
Electroz 
Відео Гуртом - підтримка та поширення
Відео Гуртом - підтримка та поширення


З нами з: 18.09.14
Востаннє: 24.08.17
Повідомлень: 1496

2017-05-30 12:09  
avi
Pacufist 
Новенький


З нами з: 27.02.15
Востаннє: 18.08.17
Повідомлень: 6

2017-05-30 13:46  
Цілком пристойний фільм про зомбаків.

Додано через 1 хвилину 25 секунд:

Прочитав весь список акторів - зламав язика Happy

d1076398 
Новенький


З нами з: 14.06.12
Востаннє: 24.08.17
Повідомлень: 23

2017-06-04 22:10  
Чудовий фільм
Estranded 
VIP


З нами з: 09.02.14
Востаннє: 23.08.17
Повідомлень: 925

2017-06-04 23:42  
Класне кіно! Чудово написаний динамічний сюжет, гарна гра акторів, робота оператора та постановка. Показує, хто у цьому світі справжні монстри!
8/10 — Вартує переглянути!

Форкуш 
VIP


З нами з: 03.02.10
Востаннє: 24.08.17
Повідомлень: 1834

2017-07-14 23:16  
Чому Пусан а не Бусан???
Ваш часовий пояс: GMT + 2 Години

Нова тема   Відповісти