Як досягти успіху в бізнесі нічого не роблячи / How to Succeed in Business Without Really Trying (1967) 720p Ukr/Eng | Sub Eng

Нові коментарі

Нова тема   Відповісти
Автор Повідомлення
Babamin 
Частий відвідувач


З нами з: 29.12.15
Востаннє: 15.12.17
Повідомлень: 33

2017-05-28 07:48  
Як досягти успіху в бізнесі нічого не роблячи / How to Succeed in Business Without Really Trying (1967) 720p Ukr/Eng | Sub Eng



Жанр: мюзикл, комедія
Країна: США



Кінокомпанія: The Mirisch Corporation
Режисер: Девід Свіфт
Актори: Роберт Морс, Мішель Лі, Руді Веллі, Ентоні Тіг, Морін Артур, Джон Майхерс, Керол Вортінгтон, Кей Рейнолдс, Рут Кобарт, Семмі Сміт, Дженіс Керролл, Лорі Патрік, Ерін O'Брайен-Мур, Енн Сеймур, Хелен Верба

Сюжет:
Молодому роботязі Джею Пайрпонту Фінчу набридло мити вікна в офісах. Чим частіше він дивиться на "білих комірців", які сидять за столами в численних компаніях та корпораціях, тим більше йому хочеться опинитися на їхньому місці. І одного разу Фінч вирішує здійснити свою мрію. Він купує книгу "Як досягти успіху в бізнесі нічого не роблячи", вивчає її від корки до корки і влаштовується у відділ пошти у "Всесвітню компанію хвірток".

Коли сатирик Шеперд Мід писав книгу "Як досягти успіху в бізнесі нічого не роблячи", він напевно не підозрював, що вона стане біблією всіх "білих комірців" та іншого офісного планктону, що просиджує стільці в численних корпораціях, холдингах і акціонерних товариствах. Але диво сталося. Працівники офісів вчили поради Міда напам'ять. А сама книга швидко привернула увагу сценаристів Віллі Гілберта і Джека Вайнстока, які вирішили перетворити її спочатку в п'єсу з офісного життя, а потім і в веселий сатиричний мюзикл.

Тривалість: 02:01:25
Якість: 720p
Контейнер:

Відео:
кодек:
розмір кадру: 1280 х 544
бітрейт: 4923 кб/с

Аудіо # 1:
мова: українська
переклад: багатоголосий закадровий
кодек: 2.0
бітрейт: 192 кб/с

Аудіо # 2:
мова: англійська
переклад: оригінал
кодек: 2.0
бітрейт: 192 кб/с

Субтитри:
мова: англійська
тип: програмні (м'які)
формат: *.srt
MInfo:
General
Complete name : How.Succeed.Without.Really.Trying.1967..720p -Hurtom.
Format :
Format version : Version 4 / Version 2
File size : 4.50 GiB
Duration : 2h 1mn
Overall bit rate : 5 310 Kbps
Movie name : How to Succeed in Business Without Really Trying (1967) 720p -Toloka
Encoded date : UTC 2017-05-28 05:29:58
Writing library : libebml v1.3.4 + libmatroska v1.4.5
DURATION : 01:58:50.750000000
NUMBER_OF_FRAMES : 1896
NUMBER_OF_BYTES : 82211
_STATISTICS_WRITING_DATE_UTC : 2017-05-28 05:29:58

Video
ID : 1
Format : AVC
Format/Info : Advanced Video Codec
Format profile : [email protected]
Format settings, CABAC : Yes
Format settings, ReFrames : 5 frames
Codec ID : V_MPEG4/ISO/AVC
Duration : 2h 1mn
Bit rate : 4 923 Kbps
Width : 1 280 pixels
Height : 544 pixels
Display aspect ratio : 2.35:1
Frame rate mode : Constant
Frame rate : 23.976 fps
Color space : YUV
Chroma subsampling : 4:2:0
Bit depth : 8 bits
Scan type : Progressive
Bits/(Pixel*Frame) : 0.295
Stream size : 4.09 GiB (91%)
Title : How.to.Succeed.in.Business.Without.Really.Trying.1967..720p -Hurtom
Writing library : core 148 r2744 b97ae06
Encoding settings : cabac=1 / ref=5 / deblock=1:-3:-3 / analyse=0x3:0x113 / me=umh / subme=8 / psy=1 / psy_rd=1.00:0.25 / mixed_ref=1 / me_range=24 / chroma_me=1 / trellis=1 / 8x8dct=1 / cqm=0 / deadzone=21,11 / fast_pskip=1 / chroma_qp_offset=-4 / threads=17 / lookahead_threads=2 / sliced_threads=0 / nr=0 / decimate=1 / interlaced=0 / bluray_compat=0 / constrained_intra=0 / bframes=3 / b_pyramid=2 / b_adapt=1 / b_bias=0 / direct=3 / weightb=1 / open_gop=0 / weightp=2 / keyint=240 / keyint_min=24 / scenecut=40 / intra_refresh=0 / rc_lookahead=50 / rc=2pass / mbtree=1 / bitrate=4923 / ratetol=1.0 / qcomp=0.60 / qpmin=0 / qpmax=69 / qpstep=4 / cplxblur=20.0 / qblur=0.5 / ip_ratio=1.40 / aq=1:0.75
Language : English
Default : Yes
Forced : No
DURATION : 02:01:25.278000000
NUMBER_OF_FRAMES : 174672
NUMBER_OF_BYTES : 4483514941
_STATISTICS_WRITING_APP : mkvmerge v12.0.0 ('Trust / Lust') 64bit
_STATISTICS_WRITING_DATE_UTC : 2017-05-28 05:29:58
_STATISTICS_TAGS : BPS DURATION NUMBER_OF_FRAMES NUMBER_OF_BYTES

Audio #1
ID : 2
Format : AC-3
Format/Info : Audio Coding 3
Mode extension : CM (complete main)
Format settings, Endianness : Big
Codec ID : A_AC3
Duration : 2h 1mn
Bit rate mode : Constant
Bit rate : 192 Kbps
Channel(s) : 2 channels
Channel positions : Front: L R
Sampling rate : 48.0 KHz
Compression mode : Lossy
Stream size : 167 MiB (4%)
Title : багатоголосий закадровий "amc"
Language : Ukrainian
Default : Yes
Forced : No

Audio #2
ID : 3
Format : AC-3
Format/Info : Audio Coding 3
Mode extension : CM (complete main)
Format settings, Endianness : Big
Codec ID : A_AC3
Duration : 2h 1mn
Bit rate mode : Constant
Bit rate : 192 Kbps
Channel(s) : 2 channels
Channel positions : Front: L R
Sampling rate : 48.0 KHz
Compression mode : Lossy
Stream size : 167 MiB (4%)
Title : original
Language : English
Default : No
Forced : No

Text
ID : 4
Format : UTF-8
Codec ID : S_TEXT/UTF8
Codec ID/Info : UTF-8 Plain Text
Language : English
Default : Yes
Forced : No
Скріншоти:




Подяка пану slavik_v_z за українську доріжку
Зведення звуку: Babamin


Срібний реліз (на рейтинг впливає 50% завантаженого)
 Трекер:    Зареєстрований   

Завантажити / скачати фільм українською



відео для новачків



 Зареєстрований:   2017-05-28 07:48
 Розмір:   4.5 GB 
 Оцінка фільму:   10/10 (Голосів: 2)
   
Babamin 
Частий відвідувач


З нами з: 29.12.15
Востаннє: 15.12.17
Повідомлень: 33

2017-05-29 09:17  
waldi-hurtom написано:
..., хоча 720p був би більш популярний.

Доба лунає... Електорат вибрав максимальну якість.

Ваш часовий пояс: GMT + 2 Години

Нова тема   Відповісти