Син (Сезон 1) / The Son (Season 1) (2017) 720p Ukr/Eng

Нові коментарі

Нова тема   Відповісти
Автор Повідомлення
Anonymous 







2017-05-27 23:30  

Син (Сезон 1) / The Son (Season 1) (2017) 720p Ukr/Eng



Жанр: вестерн, драма
Країна: США


Кінокомпанія / телеканал: American Movie Classics (AMC), Mad Hatter Entertainment
Режисер: Кевін Даулінг, Джеремі Вебб, Джон Девід Коулз, Том Гарпер, Олатунде Осунсанмі
Актори/ролі озвучують: Пірс Броснан (Pierce Brosnan), Джейкоб Лофленд, Сідні Лукас, Девід Вілсон Барнс, Джесс Вейкслер, Генрі Гаррет, Карлос Бардем, Занн МакКларнон, Раян Лі та інші

Сюжет:
Історичний епос становлення Америки, розказаний через призму злету і падіння однієї нафтової імперії.


Тривалість: 1 серія: 50хв (всього 10 серій)
Перелік серій
The Son. Season 1, Episode 1. First Son of Texas
The Son. Season 1, Episode 2. The Plum Tree
The Son. Season 1, Episode 3. Second Empire
The Son. Season 1, Episode 4. Death Song
The Son. Season 1, Episode 5. No Prisoners
The Son. Season 1, Episode 6. The Buffalo Hunter
The Son. Season 1, Episode 7. Marriage Bond
The Son. Season 1, Episode 8. Honey Hunt
The Son. Season 1, Episode 9. The Prophecy
The Son. Season 1, Episode 10. Scalps
Якість:
Відео:
кодек:
розмір кадру: 1280x 718
бітрейт: 4000 кб/с

Аудіо # 1:
мова: українська
переклад: багатоголосий закадровий
кодек: 2.0
бітрейт: 192 кб/с

Аудіо # 2:
мова: англійська
переклад: оригінал
кодек: 5.1
бітрейт: 384 кб/с
Скріншоти



МедіаІнфо
Код:
Format                         :
Format version                 : Version 4 / Version 2
File size                      : 1.58 GiB
Duration                       : 49 min 25 s
Overall bit rate               : 4 586 kb/s
Movie name                     : The.Son.S01E01.720p..DD5.1.H264-RARBG
Encoded date                   : UTC 2017-05-27 21:51:21
Writing application            : v12.0.0 ('Trust / Lust') 64bit
Writing library                : libebml v1.3.4 + v1.4.5
Cover                          : Yes
Attachments                    : small_cover.jpg / small_cover_land.jpg / cover.jpg / cover_land.jpg

Video
ID                             : 1
Format                         : AVC
Format/Info                    : Advanced Video Codec
Format profile                 : [email protected]
Format settings, CABAC         : No
Format settings, ReFrames      : 2 frames
Codec ID                       : V_MPEG4/ISO/AVC
Duration                       : 49 min 25 s
Bit rate                       : 4 008 kb/s
Width                          : 1 280 pixels
Height                         : 718 pixels
Display aspect ratio           : 16:9
Frame rate mode                : Constant
Frame rate                     : 23.976 (24000/1001) FPS
Color space                    : YUV
Chroma subsampling             : 4:2:0
Bit depth                      : 8 bits
Scan type                      : Progressive
Bits/(Pixel*Frame)             : 0.182
Stream size                    : 1.38 GiB (87%)
Title                          : The.Son.S01E01.720p..DD5.1.H264-RARBG
Language                       : English
Default                        : Yes
Forced                         : No
Color range                    : Limited
Color primaries                : BT.709
Transfer characteristics       : BT.709
Matrix coefficients            : BT.709

Audio #1
ID                             : 2
Format                         : AC-3
Format/Info                    : Audio Coding 3
Mode extension                 : CM (complete main)
Format settings, Endianness    : Big
Codec ID                       : A_AC3
Duration                       : 49 min 24 s
Bit rate mode                  : Constant
Bit rate                       : 192 kb/s
Channel(s)                     : 2 channels
Channel positions              : Front: L R
Sampling rate                  : 48.0 kHz
Frame rate                     : 31.250 FPS (1536 spf)
Bit depth                      : 16 bits
Compression mode               : Lossy
Stream size                    : 67.9 MiB (4%)
Title                          : MVO - AMC
Language                       : Ukrainian
Default                        : Yes
Forced                         : Yes

Audio #2
ID                             : 3
Format                         : AC-3
Format/Info                    : Audio Coding 3
Mode extension                 : CM (complete main)
Format settings, Endianness    : Big
Codec ID                       : A_AC3
Duration                       : 49 min 25 s
Bit rate mode                  : Constant
Bit rate                       : 384 kb/s
Channel(s)                     : 6 channels
Channel positions              : Front: L C R, Side: L R, LFE
Sampling rate                  : 48.0 kHz
Frame rate                     : 31.250 FPS (1536 spf)
Bit depth                      : 16 bits
Compression mode               : Lossy
Stream size                    : 136 MiB (8%)
Title                          : The.Son.S01E01.720p..DD5.1.H264-RARBG
Language                       : English
Default                        : No
Forced                         : No

Text
ID                             : 4
Format                         : UTF-8
Codec ID                       : S_TEXT/UTF8
Codec ID/Info                  : UTF-8 Plain Text
Duration                       : 45 min 50 s
Bit rate                       : 46 b/s
Count of elements              : 518
Stream size                    : 15.6 KiB (0%)
Language                       : English
Default                        : Yes
Forced                         : No


Джерело:
Особиста оцінка: 8 - мені сподобалося
Подяка п. Sando7 за доріжки та пану з цієї роздачі за синхронізацію.


Бронзовий реліз (на рейтинг впливає 75% завантаженого)
 Трекер:    Зареєстрований   

Завантажити / скачати серіал українською



відео для новачків



 Зареєстрований:   2017-07-22 11:40
 Розмір:   14.02 GB 
 Оцінка серіалу:   7/10 (Голосів: 40)
   
GlossaVK 
Свій


З нами з: 26.06.13
Востаннє: 25.11.20
Повідомлень: 79

2017-06-23 23:47  
Початок серіалу мені сподобався: якщо до твоєї домівки вдираються бандити, то стріляй не вагаючись, якщо хочеш залишитись живим сам і щоб вижила твоя сім'я. Досить актуальна тема, як для України, без лібералістьских шмарклів...
Anonymous 







2017-07-22 11:41  
Додано 10ту серію. Повний 1й сезон.
Slaveniy Triska 
Свій


З нами з: 26.10.17
Востаннє: 26.11.20
Повідомлень: 55

2018-07-12 11:54  
Цитата:
GlossaVK
Досить актуальна тема, як для України


Якщо ви маєте на увазі, мексиканців які вели партизанську війну проти техасців, то так, тут є паралель з Україною. Мексиканці = УПА. Американці = Московська орда.

Ваш часовий пояс: GMT + 2 Години

Нова тема   Відповісти